<?xml version="1.0" standalone="no"?>
<!DOCTYPE svg PUBLIC "-//W3C//DTD SVG 1.1//EN" "http://www.w3.org/Graphics/SVG/1.1/DTD/svg11.dtd" >
<svg xmlns="http://www.w3.org/2000/svg">
<metadata>Generated by IcoMoon</metadata>
<defs>
<font id="icomoon" horiz-adv-x="1024">
<font-face units-per-em="1024" ascent="960" descent="-64" />
<missing-glyph horiz-adv-x="1024" />
<glyph unicode="&#x20;" horiz-adv-x="512" d="" />
<glyph unicode="&#xe900;" glyph-name="Frame-11" d="M739.669 606.636c11.029-13.809 8.777-33.945-5.030-44.975l-133.585-106.699c-55.612-44.271-144.252-44.271-199.864 0l-0.079 0.064-133.12 106.666c-13.792 11.051-16.014 31.19-4.963 44.982s31.19 16.014 44.982 4.963l133.077-106.635c32.282-25.664 87.817-25.66 120.085 0.021l133.525 106.645c13.807 11.029 33.941 8.776 44.971-5.033zM155.108 725.884c-29.012-26.939-48.441-70.65-48.441-139.217v-298.667c0-68.565 19.43-112.277 48.441-139.217 29.44-27.337 73.798-42.116 132.892-42.116h426.667c59.093 0 103.45 14.78 132.894 42.116 29.009 26.94 48.439 70.652 48.439 139.217v298.667c0 68.567-19.43 112.278-48.439 139.217-29.444 27.338-73.801 42.116-132.894 42.116h-426.667c-59.095 0-103.452-14.778-132.892-42.116zM111.559 772.783c45.226 41.996 107.536 59.217 176.441 59.217h426.667c68.907 0 131.217-17.222 176.439-59.217 45.658-42.394 68.894-105.35 68.894-186.116v-298.667c0-80.768-23.236-143.723-68.894-186.116-45.222-41.997-107.533-59.217-176.439-59.217h-426.667c-68.905 0-131.215 17.22-176.441 59.217-45.655 42.394-68.892 105.348-68.892 186.116v298.667c0 80.766 23.237 143.722 68.892 186.116z" />
<glyph unicode="&#xe901;" glyph-name="airpods" d="M650.667 192c17.673 0 32-14.327 32-32v-128c0-17.673-14.327-32-32-32s-32 14.327-32 32v128c0 17.673 14.327 32 32 32zM352 192c17.673 0 32-14.327 32-32v-128c0-17.673-14.327-32-32-32s-32 14.327-32 32v128c0 17.673 14.327 32 32 32zM734.72 764.156c0 17.673 14.327 32 32 32 39.859 0 72.107-32.247 72.107-72.107 0-39.863-32.252-72.104-72.107-72.104-17.673 0-32 14.327-32 32s14.327 32 32 32c4.514 0 8.107 3.593 8.107 8.104 0 4.514-3.593 8.107-8.107 8.107-17.673 0-32 14.327-32 32zM533.333 764.586c0 83.732 68.437 152.748 152.747 152.748h80.64c106.419 0 193.28-86.862 193.28-193.281s-86.861-193.279-193.28-193.279h-8.107v-289.707c0-62.046-50.594-112.64-112.64-112.64s-112.64 50.594-112.64 112.64v523.519zM686.080 853.333c-48.815 0-88.747-40.213-88.747-88.748v-523.519c0-26.701 21.939-48.64 48.64-48.64s48.64 21.939 48.64 48.64v321.707c0 17.673 14.327 32 32 32h40.107c71.074 0 129.28 58.205 129.28 129.279s-58.206 129.281-129.28 129.281h-80.64zM235.945 732.156c-4.514 0-8.107-3.593-8.107-8.107 0-4.511 3.59-8.104 8.107-8.104 17.673 0 32-14.327 32-32s-14.327-32-32-32c-39.857 0-72.107 32.241-72.107 72.104 0 39.86 32.247 72.107 72.107 72.107 17.673 0 32-14.327 32-32s-14.327-32-32-32zM235.947 853.333c-71.073 0-129.28-58.208-129.28-129.281s58.206-129.279 129.28-129.279h40.107c17.673 0 32-14.327 32-32v-321.707c0-26.701 21.94-48.64 48.64-48.64s48.64 21.939 48.64 48.64v523.519c0 48.534-39.933 88.748-88.746 88.748h-80.64zM42.667 724.052c0 106.42 86.86 193.281 193.28 193.281h80.64c84.307 0 152.746-69.015 152.746-152.748v-523.519c0-62.046-50.594-112.64-112.64-112.64s-112.64 50.594-112.64 112.64v289.707h-8.107c-106.42 0-193.28 86.859-193.28 193.279z" />
<glyph unicode="&#xe902;" glyph-name="arrow-circle-down" d="M311.337 542.934c13.614 13.652 35.717 13.683 49.369 0.070l139.657-139.259 139.655 139.259c13.652 13.614 35.756 13.582 49.371-0.070 13.61-13.652 13.582-35.755-0.074-49.37l-164.305-163.84c-13.624-13.587-35.672-13.587-49.296 0l-164.306 163.84c-13.652 13.615-13.683 35.718-0.070 49.37zM500.364 890.182c-237.784 0-430.545-192.762-430.545-430.545 0-237.782 192.762-430.545 430.545-430.545s430.545 192.763 430.545 430.545c0 237.784-192.763 430.545-430.545 430.545zM0 459.636c0 276.343 224.020 500.364 500.364 500.364 276.345 0 500.364-224.020 500.364-500.364 0-276.345-224.019-500.364-500.364-500.364-276.343 0-500.364 224.019-500.364 500.364z" />
<glyph unicode="&#xe903;" glyph-name="arrow-circle-left" d="M577.69 631.941c12.514-12.479 12.544-32.74 0.064-45.255l-127.659-128.019 127.659-128.017c12.48-12.514 12.45-32.777-0.064-45.257-12.514-12.476-32.777-12.45-45.257 0.068l-150.186 150.613c-12.454 12.489-12.454 32.7 0 45.188l150.186 150.614c12.48 12.514 32.742 12.543 45.257 0.064zM501.333 853.333c-217.968 0-394.667-176.698-394.667-394.667 0-217.967 176.698-394.667 394.667-394.667 217.967 0 394.667 176.7 394.667 394.667 0 217.968-176.7 394.667-394.667 394.667zM42.667 458.667c0 253.315 205.352 458.667 458.667 458.667 253.316 0 458.667-205.352 458.667-458.667s-205.35-458.667-458.667-458.667c-253.315 0-458.667 205.35-458.667 458.667z" />
<glyph unicode="&#xe904;" glyph-name="arrow-circle-right" d="M403.645 631.941c-12.515-12.479-12.543-32.74-0.064-45.255l127.657-128.019-127.657-128.017c-12.479-12.514-12.451-32.777 0.064-45.257 12.515-12.476 32.775-12.45 45.255 0.068l150.187 150.613c12.454 12.489 12.454 32.7 0 45.188l-150.187 150.614c-12.48 12.514-32.741 12.543-45.255 0.064zM480 853.333c217.967 0 394.667-176.698 394.667-394.667 0-217.967-176.7-394.667-394.667-394.667-217.968 0-394.667 176.7-394.667 394.667 0 217.968 176.698 394.667 394.667 394.667zM938.667 458.667c0 253.315-205.35 458.667-458.667 458.667-253.315 0-458.667-205.352-458.667-458.667s205.352-458.667 458.667-458.667c253.316 0 458.667 205.35 458.667 458.667z" />
<glyph unicode="&#xe905;" glyph-name="arrow-circle-up" d="M334.61 376.339c13.614-13.652 35.717-13.684 49.369-0.070l139.657 139.261 139.655-139.261c13.652-13.615 35.756-13.582 49.371 0.070 13.61 13.652 13.582 35.756-0.074 49.371l-164.305 163.839c-13.624 13.586-35.672 13.586-49.296 0l-164.306-163.839c-13.652-13.615-13.683-35.719-0.070-49.371zM523.636 29.091c-237.784 0-430.545 192.763-430.545 430.545 0 237.784 192.762 430.545 430.545 430.545s430.545-192.762 430.545-430.545c0-237.782-192.763-430.545-430.545-430.545zM23.273 459.636c0-276.345 224.020-500.364 500.364-500.364 276.345 0 500.364 224.019 500.364 500.364 0 276.343-224.019 500.364-500.364 500.364-276.343 0-500.364-224.020-500.364-500.364z" />
<glyph unicode="&#xe906;" glyph-name="arrow-down" d="M504.316 28.587c17.677 0 32 14.327 32 32v718.082c0 17.673-14.323 32-32 32-17.673 0-32-14.327-32-32v-718.082c0-17.673 14.327-32 32-32zM504.32 21.333c8.486 0 16.627 3.371 22.626 9.374l258.987 258.987c12.497 12.497 12.497 32.755 0 45.252s-32.755 12.497-45.252 0l-236.361-236.356-236.359 236.356c-12.497 12.497-32.758 12.497-45.255 0s-12.497-32.755 0-45.252l258.988-258.987c5.999-6.003 14.14-9.374 22.626-9.374z" />
<glyph unicode="&#xe907;" glyph-name="arrow-down-1" d="M415.559 268.681c45.352-45.35 119.37-45.35 164.72 0l278.187 278.185c12.497 12.497 12.497 32.758 0 45.255s-32.755 12.497-45.252 0l-278.187-278.188c-20.356-20.356-53.858-20.356-74.214 0l-278.185 278.188c-12.497 12.497-32.758 12.497-45.255 0s-12.497-32.758 0-45.255l278.187-278.185z" />
<glyph unicode="&#xe908;" glyph-name="arrow-left" d="M938.667 455.684c0 17.673-14.327 32-32 32h-718.080c-17.673 0-32-14.327-32-32 0-17.677 14.327-32 32-32h718.080c17.673 0 32 14.323 32 32zM462.946 737.294c-12.497 12.497-32.759 12.497-45.256 0l-258.987-258.988c-6.001-5.999-9.373-14.14-9.373-22.626s3.371-16.627 9.373-22.626l258.987-258.987c12.496-12.497 32.759-12.497 45.256 0s12.497 32.755 0 45.252l-236.36 236.361 236.36 236.359c12.497 12.497 12.497 32.758 0 45.255z" />
<glyph unicode="&#xe909;" glyph-name="arrow-left-1" d="M715.959 116.041c-12.497-12.497-32.755-12.497-45.252 0l-278.188 278.187c-45.35 45.35-45.35 119.369 0 164.72l278.188 278.187c12.497 12.497 32.755 12.497 45.252 0s12.497-32.758 0-45.255l-278.187-278.185c-20.355-20.356-20.355-53.858 0-74.214l278.187-278.187c12.497-12.497 12.497-32.755 0-45.252z" />
<glyph unicode="&#xe90a;" glyph-name="arrow-right" d="M128 455.684c0 17.673 14.327 32 32 32h718.080c17.673 0 32-14.327 32-32 0-17.677-14.327-32-32-32h-718.080c-17.673 0-32 14.323-32 32zM603.721 737.294c12.497 12.497 32.759 12.497 45.257 0l258.987-258.988c5.999-5.999 9.374-14.14 9.374-22.626s-3.375-16.627-9.374-22.626l-258.987-258.987c-12.497-12.497-32.759-12.497-45.257 0s-12.497 32.755 0 45.252l236.361 236.361-236.361 236.359c-12.497 12.497-12.497 32.758 0 45.255z" />
<glyph unicode="&#xe90b;" glyph-name="arrow-right-1" d="M350.706 822.627c12.497 12.497 32.758 12.497 45.255 0l278.185-278.187c45.35-45.352 45.35-119.37 0-164.72l-278.185-278.187c-12.497-12.497-32.758-12.497-45.255 0s-12.497 32.755 0 45.252l278.188 278.187c20.356 20.356 20.356 53.858 0 74.214l-278.188 278.185c-12.497 12.497-12.497 32.758 0 45.255z" />
<glyph unicode="&#xe90c;" glyph-name="arrow-up" d="M504.316 824.745c17.677 0 32-14.327 32-32v-718.078c0-17.677-14.323-32-32-32-17.673 0-32 14.323-32 32v718.078c0 17.673 14.327 32 32 32zM504.32 832c8.486 0 16.627-3.372 22.626-9.373l258.987-258.987c12.497-12.497 12.497-32.756 0-45.254s-32.755-12.497-45.252 0l-236.361 236.358-236.359-236.358c-12.497-12.497-32.758-12.497-45.255 0s-12.497 32.757 0 45.254l258.988 258.987c5.999 6.001 14.14 9.373 22.626 9.373z" />
<glyph unicode="&#xe90d;" glyph-name="bag-2" d="M298.469 459.017c0 23.565 19.103 42.667 42.667 42.667h0.383c23.564 0 42.667-19.102 42.667-42.667s-19.102-42.667-42.667-42.667h-0.383c-23.564 0-42.667 19.102-42.667 42.667zM597.175 459.017c0 23.565 19.106 42.667 42.667 42.667h0.384c23.565 0 42.667-19.102 42.667-42.667s-19.102-42.667-42.667-42.667h-0.384c-23.561 0-42.667 19.102-42.667 42.667zM122.64 594.814c37.777 44.913 102.546 66.868 197.396 66.868h341.332c94.852 0 159.62-21.955 197.397-66.868 37.474-44.551 40.981-103.102 34.944-157.664l-0.051-0.452-31.97-255.727c-4.715-43.785-15.761-91.746-54.844-127.445-38.874-35.516-99.102-53.175-188.143-53.175h-255.999c-89.039 0-149.268 17.66-188.144 53.175-39.080 35.703-50.127 83.661-54.844 127.45l-32.022 256.175c-6.037 54.562-2.526 113.113 34.947 157.664zM151.284 444.407l32.041-256.329c4.26-39.761 13.086-67.831 34.4-87.305 21.605-19.738 62.496-36.425 144.977-36.425h255.999c82.483 0 123.375 16.687 144.977 36.425 21.316 19.473 30.144 47.543 34.406 87.305l0.060 0.559 31.979 255.778c5.44 49.429-0.239 85.308-20.335 109.201-19.823 23.567-61.082 44.065-148.42 44.065h-341.332c-87.337 0-128.595-20.498-148.418-44.065-20.097-23.894-25.775-59.776-20.334-109.21zM650.705 693.256c0 93.583-80.405 168.54-175.684 159.296l-0.115-0.011c-77.717-7.253-144.203-86.002-144.203-167.392v-41.387c0-17.673-14.327-32-32-32s-32 14.327-32 32v41.387c0 110.592 87.939 220.411 202.195 231.11 133.389 12.907 245.807-92.178 245.807-223.003v-58.88c0-17.673-14.327-32-32-32-17.677 0-32 14.327-32 32v58.88z" />
<glyph unicode="&#xe90e;" glyph-name="category" d="M84.039 363.959c29.451 29.453 71.028 41.374 118.627 41.374h85.333c47.599 0 89.176-11.921 118.627-41.374 29.452-29.449 41.373-71.027 41.373-118.626v-85.333c0-47.599-11.921-89.178-41.373-118.626-29.451-29.453-71.028-41.374-118.627-41.374h-85.333c-47.599 0-89.176 11.921-118.627 41.374-29.451 29.449-41.373 71.027-41.373 118.626v85.333c0 47.599 11.921 89.178 41.373 118.626zM129.294 318.707c-13.216-13.218-22.627-35.639-22.627-73.374v-85.333c0-37.734 9.412-60.156 22.627-73.374 13.216-13.214 35.639-22.626 73.373-22.626h85.333c37.734 0 60.157 9.412 73.373 22.626 13.216 13.218 22.627 35.639 22.627 73.374v85.333c0 37.734-9.412 60.156-22.627 73.374-13.216 13.214-35.639 22.626-73.373 22.626h-85.333c-37.734 0-60.157-9.412-73.373-22.626zM596.041 363.959c29.449 29.453 71.027 41.374 118.626 41.374h85.333c47.599 0 89.178-11.921 118.626-41.374 29.453-29.449 41.374-71.027 41.374-118.626v-85.333c0-47.599-11.921-89.178-41.374-118.626-29.449-29.453-71.027-41.374-118.626-41.374h-85.333c-47.599 0-89.178 11.921-118.626 41.374-29.453 29.449-41.374 71.027-41.374 118.626v85.333c0 47.599 11.921 89.178 41.374 118.626zM641.293 318.707c-13.214-13.218-22.626-35.639-22.626-73.374v-85.333c0-37.734 9.412-60.156 22.626-73.374 13.218-13.214 35.639-22.626 73.374-22.626h85.333c37.734 0 60.156 9.412 73.374 22.626 13.214 13.218 22.626 35.639 22.626 73.374v85.333c0 37.734-9.412 60.156-22.626 73.374-13.218 13.214-35.639 22.626-73.374 22.626h-85.333c-37.734 0-60.156-9.412-73.374-22.626zM596.041 875.961c29.449 29.451 71.027 41.373 118.626 41.373h85.333c47.599 0 89.178-11.921 118.626-41.373 29.453-29.451 41.374-71.028 41.374-118.627v-85.333c0-47.599-11.921-89.176-41.374-118.627-29.449-29.452-71.027-41.373-118.626-41.373h-85.333c-47.599 0-89.178 11.921-118.626 41.373-29.453 29.451-41.374 71.028-41.374 118.627v85.333c0 47.599 11.921 89.176 41.374 118.627zM641.293 830.706c-13.214-13.216-22.626-35.639-22.626-73.373v-85.333c0-37.734 9.412-60.157 22.626-73.373 13.218-13.216 35.639-22.627 73.374-22.627h85.333c37.734 0 60.156 9.412 73.374 22.627 13.214 13.216 22.626 35.639 22.626 73.373v85.333c0 37.734-9.412 60.157-22.626 73.373-13.218 13.216-35.639 22.627-73.374 22.627h-85.333c-37.734 0-60.156-9.412-73.374-22.627zM84.039 875.961c29.451 29.451 71.028 41.373 118.627 41.373h85.333c47.599 0 89.176-11.921 118.627-41.373s41.373-71.028 41.373-118.627v-85.333c0-47.599-11.921-89.176-41.373-118.627s-71.028-41.373-118.627-41.373h-85.333c-47.599 0-89.176 11.921-118.627 41.373s-41.373 71.028-41.373 118.627v85.333c0 47.599 11.921 89.176 41.373 118.627zM129.294 830.706c-13.216-13.216-22.627-35.639-22.627-73.373v-85.333c0-37.734 9.412-60.157 22.627-73.373s35.639-22.627 73.373-22.627h85.333c37.734 0 60.157 9.412 73.373 22.627s22.627 35.639 22.627 73.373v85.333c0 37.734-9.412 60.157-22.627 73.373s-35.639 22.627-73.373 22.627h-85.333c-37.734 0-60.157-9.412-73.373-22.627z" />
<glyph unicode="&#xe90f;" glyph-name="category-2" d="M757.333 341.333c-76.582 0-138.667-62.084-138.667-138.667s62.084-138.667 138.667-138.667c76.582 0 138.667 62.084 138.667 138.667s-62.084 138.667-138.667 138.667zM554.667 202.667c0 111.932 90.735 202.667 202.667 202.667s202.667-90.735 202.667-202.667c0-111.932-90.735-202.667-202.667-202.667s-202.667 90.735-202.667 202.667zM245.333 853.333c-76.584 0-138.667-62.083-138.667-138.667s62.083-138.667 138.667-138.667c76.584 0 138.667 62.083 138.667 138.667s-62.083 138.667-138.667 138.667zM42.667 714.667c0 111.93 90.737 202.667 202.667 202.667s202.667-90.737 202.667-202.667c0-111.93-90.737-202.667-202.667-202.667s-202.667 90.737-202.667 202.667zM84.039 363.959c29.451 29.453 71.028 41.374 118.627 41.374h85.333c47.599 0 89.176-11.921 118.627-41.374 29.452-29.449 41.373-71.027 41.373-118.626v-85.333c0-47.599-11.921-89.178-41.373-118.626-29.451-29.453-71.028-41.374-118.627-41.374h-85.333c-47.599 0-89.176 11.921-118.627 41.374-29.451 29.449-41.373 71.027-41.373 118.626v85.333c0 47.599 11.921 89.178 41.373 118.626zM129.294 318.707c-13.216-13.218-22.627-35.639-22.627-73.374v-85.333c0-37.734 9.412-60.156 22.627-73.374 13.216-13.214 35.639-22.626 73.373-22.626h85.333c37.734 0 60.157 9.412 73.373 22.626 13.216 13.218 22.627 35.639 22.627 73.374v85.333c0 37.734-9.412 60.156-22.627 73.374-13.216 13.214-35.639 22.626-73.373 22.626h-85.333c-37.734 0-60.157-9.412-73.373-22.626zM596.041 875.961c29.449 29.451 71.027 41.373 118.626 41.373h85.333c47.599 0 89.178-11.921 118.626-41.373 29.453-29.451 41.374-71.028 41.374-118.627v-85.333c0-47.599-11.921-89.176-41.374-118.627-29.449-29.452-71.027-41.373-118.626-41.373h-85.333c-47.599 0-89.178 11.921-118.626 41.373-29.453 29.451-41.374 71.028-41.374 118.627v85.333c0 47.599 11.921 89.176 41.374 118.627zM641.293 830.706c-13.214-13.216-22.626-35.639-22.626-73.373v-85.333c0-37.734 9.412-60.157 22.626-73.373 13.218-13.216 35.639-22.627 73.374-22.627h85.333c37.734 0 60.156 9.412 73.374 22.627 13.214 13.216 22.626 35.639 22.626 73.373v85.333c0 37.734-9.412 60.157-22.626 73.373-13.218 13.216-35.639 22.627-73.374 22.627h-85.333c-37.734 0-60.156-9.412-73.374-22.627z" />
<glyph unicode="&#xe910;" glyph-name="cloud" d="M760.661 591.936c-21.325 96.146-72.149 162.925-137.557 201.34-69.623 40.892-152.678 47.841-227.56 28.156s-143.854-66.6-184.568-136.431c-36.149-62-48.626-139.687-25.983-227.61-201.444-48.448-189.049-360.956 37.184-376.909 0.749-0.051 1.5-0.081 2.251-0.081h473.062c65.481-0.452 128.606 23.765 176.768 67.895 80.977 70.874 98.765 176.721 71.445 266.342-25.327 83.098-90.62 156.156-185.041 177.297zM250.278 461.41c-23.314 78.432-12.35 142.754 15.986 191.355 31.086 53.316 84.913 90.828 145.552 106.769s125.822 9.717 178.878-21.444c52.301-30.717 95.923-87.476 111.181-179.103 2.321-13.941 13.513-24.709 27.533-26.49 77.828-9.886 133.79-66.679 155.076-136.516s6.515-148.151-52.612-199.731l-0.623-0.555c-36.245-33.318-83.878-51.661-133.41-51.294h-472.236c-158.561 12.22-158.582 242.445-0.061 254.716 20.244-0.171 40.028-4.975 57.745-13.999 15.747-8.026 35.017-1.762 43.039 13.986s1.76 35.017-13.987 43.038c-19.474 9.92-40.476 16.397-62.061 19.268z" />
<glyph unicode="&#xe911;" glyph-name="crown" d="M493.666 764.893c4.309 4.297 11.123 3.875 14.613 0.294l153.468-153.467c28.915-28.916 76.587-29.399 105.54 0.125l110.379 110.382c6.874 6.871 12.262 10.518 15.825 12.294 1.271-3.788 2.509-10.202 2.509-19.959v-409.173c0-56.73-18.769-101.517-49.293-132.041s-75.311-49.293-132.041-49.293h-426.605c-100.175 0.393-181.395 81.715-181.395 181.76v408.747c0 9.757 1.239 16.172 2.51 19.959 3.562-1.775 8.951-5.423 15.823-12.294l110.507-110.507c28.922-28.922 76.609-29.399 105.559 0.144l152.602 153.030c0.004 0.003-0.004-0.003 0 0zM553.954 810.020c-28.949 29.526-76.625 29.044-105.54 0.128l-153.040-153.469c-3.492-3.584-10.305-4.012-14.613 0.296l-110.507 110.507c-21.693 21.693-53.782 41.654-86.421 28.099-32.607-13.542-41.166-50.335-41.166-81.019v-408.747c0-135.454 109.897-245.269 245.217-245.76h426.783c71.27 0 133.15 23.898 177.293 68.041s68.041 106.022 68.041 177.293v409.173c0 30.685-8.559 67.477-41.165 81.019-32.64 13.556-64.73-6.405-86.421-28.099l-110.801-110.802c-3.49-3.584-10.304-4.012-14.613 0.296l-153.045 153.046z" />
<glyph unicode="&#xe912;" glyph-name="crown-1" d="M366.135 372.693c0 17.673 14.327 32 32 32h213.333c17.673 0 32-14.327 32-32s-14.327-32-32-32h-213.333c-17.673 0-32 14.327-32 32zM238.135 31.36c0 17.673 14.327 32 32 32h469.333c17.673 0 32-14.327 32-32s-14.327-32-32-32h-469.333c-17.673 0-32 14.327-32 32zM505.015 851.448c3.618-3.912 8.687-11.737 13.751-25.307l75.195-200.374c9.020-23.521 26.722-41.671 50.103-48.88 23.415-7.22 48.299-2.157 69.005 12.402l156.42 111.544c13.316 9.561 23.433 14.662 30.306 16.979-0.299-7.292-2.381-18.493-7.868-34.019-0.004-0.020-0.013-0.039-0.017-0.059l-172.066-481.695c-0.525-1.097-2.359-3.789-6.157-6.404-4.066-2.803-7.347-3.422-8.354-3.422h-401.069c-0.991 0-4.165 0.606-7.985 3.307-3.815 2.697-5.425 5.466-5.757 6.413l-176.703 494.255c0.003-0.010-0.004 0.010 0 0-3.948 11.113-5.924 19.654-6.718 25.847 5.691-2.471 13.283-6.709 22.761-13.517l166.854-119.36c20.817-14.412 45.708-19.479 69.154-12.28s41.164 25.354 50.192 48.89l75.194 200.375c5.065 13.57 10.138 21.395 13.756 25.307zM578.714 848.562c-6.848 18.331-15.663 34.481-26.94 46.584-11.392 12.227-27.247 22.187-46.758 22.187-19.516 0-35.371-9.96-46.763-22.187-11.277-12.104-20.092-28.253-26.94-46.585-0.004-0.012 0.004 0.012 0 0l-75.038-199.964c-2.917-7.54-6.936-9.849-9.188-10.541-2.243-0.689-6.944-1.062-13.768 3.602l-166.117 118.837c-0.008 0.006 0.009-0.006 0 0-16.772 12.045-33.509 21.173-49.471 25.533-15.604 4.262-35.922 5.24-53.003-7.59-17.091-12.837-21.812-32.64-22.051-48.861-0.244-16.593 3.887-35.26 10.851-54.854l0.020-0.056 176.569-493.88c0.013-0.038 0.027-0.077 0.041-0.115 5.656-16.064 17.033-28.83 29.189-37.419 12.179-8.606 27.992-15.040 44.921-15.040h401.069c16.909 0 32.614 6.421 44.655 14.711 12.028 8.282 23.441 20.527 29.483 35.831 0.128 0.329 0.252 0.657 0.367 0.986l172.412 482.657c7.497 21.207 11.857 41.23 11.571 58.884-0.277 17.28-5.312 37.79-22.869 51.068-17.596 13.308-38.729 12.511-55.441 7.982-17.033-4.615-35.038-14.371-53.303-27.478-0.013-0.011-0.030-0.022-0.047-0.034l-155.9-111.177c-0.026-0.017-0.051-0.035-0.077-0.052-6.558-4.586-11.089-4.217-13.265-3.546-2.21 0.682-6.246 2.996-9.169 10.55l-75.038 199.967c0.004-0.012-0.004 0.012 0 0z" />
<glyph unicode="&#xe913;" glyph-name="cup" d="M763.426 802.613c5.914 9.021 15.974 14.454 26.761 14.454h27.733c77.406 0 138.667-61.26 138.667-138.667 0-69.614-30.016-128.12-72.213-175.007-0.375-0.418-0.764-0.823-1.161-1.22-25.246-25.25-57.681-47.040-95.219-59.051-11.942-3.823-25.020-0.316-33.446 8.969-8.431 9.284-10.658 22.639-5.7 34.155 14.153 32.905 22.14 68.719 22.14 106.821v128c0 18.607-3.511 35.978-10.146 51.241-4.301 9.892-3.328 21.285 2.586 30.305zM832.704 751.682c1.532-10.069 2.283-20.306 2.283-30.614v-128c0-17.892-1.425-35.378-4.143-52.398 2.231 2.013 4.407 4.072 6.528 6.173 34.266 38.295 55.215 81.98 55.215 131.558 0 36.98-25.207 66.653-59.883 73.281zM166.548 751.682c-34.676-6.628-59.882-36.3-59.882-73.281 0-49.578 20.951-93.264 55.216-131.558 2.119-2.101 4.296-4.16 6.527-6.173-2.718 17.020-4.143 34.506-4.143 52.398v128c0 10.308 0.753 20.545 2.282 30.614zM42.667 678.401c0 77.407 61.26 138.667 138.667 138.667h27.733c10.786 0 20.847-5.434 26.761-14.454s6.886-20.413 2.585-30.305c-6.636-15.263-10.146-32.634-10.146-51.241v-128c0-38.102 7.986-73.917 22.141-106.821 4.956-11.516 2.727-24.87-5.702-34.155s-21.503-12.791-33.446-8.969c-37.539 12.011-69.973 33.801-95.221 59.051-0.397 0.397-0.783 0.802-1.158 1.22-42.198 46.887-72.215 105.393-72.215 175.007zM371.625 853.333c-76.62 0-138.667-62.046-138.667-138.667v-128c0-147.447 119.22-266.667 266.668-266.667 147.443 0 266.667 119.219 266.667 266.667v128c0 76.62-62.050 138.667-138.667 138.667h-256.002zM168.958 714.667c0 111.966 90.7 202.667 202.667 202.667h256.002c111.966 0 202.667-90.7 202.667-202.667v-128c0-182.793-147.874-330.667-330.667-330.667-182.795 0-330.668 147.874-330.668 330.667v128zM218.026 32c0 17.673 14.327 32 32 32h512c17.673 0 32-14.327 32-32s-14.327-32-32-32h-512c-17.673 0-32 14.327-32 32zM260.693 74.667c0 64.606 52.727 117.333 117.333 117.333h256.001c64.606 0 117.333-52.727 117.333-117.333v-74.667h-458.667v32h-32v42.667zM324.693 64h362.667v10.667c0 29.261-24.073 53.333-53.333 53.333h-256.001c-29.26 0-53.333-24.073-53.333-53.333v-10.667z" />
<glyph unicode="&#xe914;" glyph-name="dislike" d="M766.822 754.087c-4.215-3.888-9.975-13.159-9.975-39.42v-418.134c0-26.261 5.76-35.533 9.975-39.42 4.838-4.467 15.945-9.647 43.358-9.647h42.667c27.418 0 38.524 5.18 43.362 9.647 4.215 3.887 9.971 13.158 9.971 39.42v418.134c0 26.261-5.756 35.532-9.971 39.42-4.838 4.468-15.945 9.647-43.362 9.647h-42.667c-27.413 0-38.519-5.178-43.358-9.647zM723.409 801.115c22.895 21.132 54.455 26.619 86.771 26.619h42.667c32.32 0 63.881-5.488 86.775-26.619 23.518-21.712 30.558-52.975 30.558-86.447v-418.134c0-33.472-7.040-64.734-30.558-86.447-22.895-21.133-54.455-26.62-86.775-26.62h-42.667c-32.316 0-63.876 5.487-86.771 26.62-23.518 21.713-30.562 52.975-30.562 86.447v418.134c0 33.473 7.044 64.735 30.562 86.447zM252.087 842.892c26.599 19.463 59.76 31.775 93.030 31.775h162.134c15.889 0 34.846-2.58 52.523-7.631 16.247-4.642 35.413-12.488 49.51-25.731l130.889-101.334-39.177-50.606-133.871 103.642-1.434 1.434c-2.846 2.844-10.526 7.352-23.501 11.059-12.186 3.482-25.229 5.169-34.94 5.169h-162.134c-17.93 0-38.102-6.888-55.237-19.425-17.112-12.521-28.95-28.996-33.185-45.936l-0.282-1.129-103.027-313.342c-7.508-21.022-3.749-37.389 4.16-48.119 8.059-10.935 23.429-20.049 46.771-20.049h170.667c44.516 0 81.443-38.033 74.343-87.727l-0.055-0.414-21.495-137.54-0.222-0.994c-4.721-21.248 10.368-48.572 34.351-56.567l0.559-0.188 0.555-0.209c8.661-3.247 20.041-3.17 31.697 0.836 11.866 4.079 20.433 11.004 24.307 16.819l0.068 0.102 174.933 260.267 53.116-35.703-174.899-260.22c-13.193-19.755-34.475-34.142-56.721-41.792-22.315-7.671-49.105-9.754-74.415-0.439-52.17 17.711-87.856 74.867-76.262 129.89l21.152 135.373c0.806 5.922-0.934 9.19-2.473 10.935-1.785 2.022-4.705 3.571-8.539 3.571h-170.667c-40.657 0-76.487 16.486-98.295 46.084-21.882 29.696-26.698 68.629-13.052 107.204l101.944 310.081c8.783 33.717 30.865 61.606 57.173 80.855z" />
<glyph unicode="&#xe915;" glyph-name="export" d="M500.894 865.294c12.497 12.497 32.759 12.497 45.257 0l142.933-142.933c12.497-12.497 12.497-32.758 0-45.255s-32.759-12.497-45.257 0l-120.307 120.306-120.304-120.306c-12.497-12.497-32.758-12.497-45.255 0s-12.497 32.758 0 45.255l142.933 142.933zM523.52 826.88c17.673 0 32-14.327 32-32v-485.547c0-17.673-14.327-32-32-32s-32 14.327-32 32v485.547c0 17.673 14.327 32 32 32zM681.079 572.343c1.515 17.608 17.020 30.653 34.624 29.137 81.579-7.025 145.468-32.111 187.866-84.359 41.677-51.366 57.711-123.153 57.711-212.484v-5.547c0-98.522-19.533-175.825-71.398-227.691-51.87-51.87-129.169-71.403-227.695-71.403h-277.76c-98.525 0-175.827 19.533-227.694 71.403-51.867 51.866-71.399 129.169-71.399 227.691v5.547c0 88.683 15.817 160.038 56.826 211.298 41.748 52.186 104.707 77.603 185.111 85.098 17.597 1.641 33.192-11.295 34.832-28.892s-11.295-33.191-28.892-34.832c-70.636-6.586-114.131-27.672-141.076-61.353-27.685-34.607-42.801-88.478-42.801-171.319v-5.547c0-92.194 18.654-148.437 52.654-182.438s90.244-52.655 182.439-52.655h277.76c92.194 0 148.442 18.654 182.438 52.655 34.001 34.001 52.655 90.244 52.655 182.438v5.547c0 83.473-15.326 137.553-43.409 172.16-27.362 33.724-71.633 54.716-143.654 60.919-17.609 1.516-30.656 17.019-29.137 34.627z" />
<glyph unicode="&#xe916;" glyph-name="eye" horiz-adv-x="983" d="M32.461 467.374c97.932 153.944 241.44 246.866 399.053 246.866 157.618 0 301.134-92.93 399.065-246.886 22.323-34.992 32.449-79.819 32.449-122.778s-10.125-87.785-32.449-122.778c-97.931-153.956-241.447-246.886-399.065-246.886-157.62 0-301.133 92.93-399.066 246.886-22.322 34.992-32.448 79.819-32.448 122.778 0 42.967 10.129 87.802 32.461 122.798zM431.514 652.8c-131.557 0-257.561-77.464-347.225-218.419l-0.026-0.041c-14.524-22.753-22.823-55.325-22.823-89.764s8.299-67.011 22.823-89.764l0.026-0.041c89.664-140.956 215.668-218.419 347.225-218.419 131.559 0 257.561 77.464 347.226 218.419l0.025 0.041c14.524 22.753 22.823 55.325 22.823 89.764s-8.298 67.011-22.823 89.764l-0.025 0.041c-89.666 140.956-215.667 218.419-347.226 218.419zM423.117 448c-64.135 0-115.917-51.782-115.917-115.917s51.782-115.917 115.917-115.917c64.135 0 115.917 51.782 115.917 115.917s-51.782 115.917-115.917 115.917zM245.76 332.083c0 98.066 79.29 177.357 177.357 177.357s177.357-79.29 177.357-177.357c0-98.066-79.29-177.357-177.357-177.357s-177.357 79.29-177.357 177.357z" />
<glyph unicode="&#xe917;" glyph-name="eye-slash" d="M416.014 404.493c12.496-12.497 12.496-32.759 0-45.257l-318.72-318.72c-12.497-12.497-32.758-12.497-45.255 0s-12.497 32.759 0 45.257l318.72 318.72c12.497 12.497 32.758 12.497 45.255 0zM656.896 491.418c17.378-3.204 28.868-19.891 25.664-37.274-13.5-73.207-72.777-132.484-145.984-145.984-17.382-3.209-34.069 8.286-37.274 25.664-3.204 17.382 8.286 34.069 25.664 37.274 47.113 8.687 85.969 47.543 94.656 94.652 3.204 17.382 19.891 28.873 37.274 25.668zM824.742 688.397c13.773 11.077 33.916 8.893 44.992-4.879 16.38-20.364 32.469-42.245 47.309-65.63 23.241-36.448 33.783-83.127 33.783-127.866 0-44.757-10.551-91.46-33.813-127.915-102.012-160.358-251.499-257.152-415.68-257.152-57.024 0-112.861 12.058-165.165 34.082-16.288 6.857-23.933 25.621-17.074 41.907 6.858 16.29 25.622 23.936 41.91 17.075 44.976-18.935 92.393-29.065 140.329-29.065 137.037 0 268.292 80.691 361.694 227.52l0.026 0.043c15.13 23.701 23.774 57.63 23.774 93.504s-8.644 69.801-23.774 93.503l-0.047 0.071c-13.316 20.989-27.947 40.92-43.14 59.81-11.076 13.771-8.892 33.914 4.877 44.991zM85.652 617.516c102.013 160.357 251.5 257.15 415.682 257.15 95.983 0 187.964-33.434 267.588-93.492 14.11-10.643 16.922-30.708 6.276-44.817-10.641-14.109-30.707-16.92-44.817-6.278-69.709 52.582-148.395 80.588-229.047 80.588-137.041 0-268.294-80.691-361.695-227.522l-0.026-0.042c-15.129-23.702-23.773-57.629-23.773-93.503s8.644-69.803 23.773-93.504c32.161-50.479 69.415-93.717 109.518-128.209 13.4-11.52 14.921-31.727 3.397-45.124-11.523-13.402-31.727-14.921-45.127-3.396-45.23 38.895-86.497 86.985-121.75 142.319-23.261 36.454-33.812 83.157-33.812 127.915s10.551 91.461 33.813 127.916zM501.333 610.557c-66.803 0-120.745-53.94-120.745-120.748 0-21.773 5.714-42.091 15.799-59.691l164.64 164.64c-17.604 10.085-37.918 15.799-59.695 15.799zM316.588 489.809c0 102.155 82.594 184.748 184.745 184.748 51.11 0 97.114-20.712 130.577-54.173 12.497-12.497 12.497-32.758 0-45.255l-215.896-215.894c-12.497-12.497-32.756-12.497-45.253 0-33.46 33.459-54.173 79.467-54.173 130.573z" />
<glyph unicode="&#xe918;" glyph-name="flag" d="M11.13 746.667c0 17.673 14.95 32 33.391 32h498.642c32.759 0 61.747-4.309 85.261-13.755 23.757-9.546 43.802-25.233 53.619-48.285 9.805-23.012 6.98-47.649-2.842-70.394-9.737-22.545-27.038-45.163-50.095-67.259l-53.427-51.199c-23.518-22.537-21.099-56.427-1.621-72.759 0.555-0.465 1.097-0.951 1.621-1.455l53.427-51.2c43.968-42.138 71.484-92.467 51.046-138.163-20.224-45.222-76.727-61.53-136.99-61.53h-498.642c-18.441 0-33.391 14.327-33.391 32s14.95 32 33.391 32h498.642c55.497 0 72.452 15.693 75.605 22.737 2.935 6.571 3.738 28.774-36.885 67.703l-52.706 50.509c-50.829 43.541-48.158 119.949-0.721 165.411l53.427 51.2c19.238 18.438 30.319 34.22 35.61 46.475 5.205 12.054 4.049 18.617 2.722 21.739-1.314 3.081-5.201 8.46-17.613 13.448-12.663 5.087-32.094 8.778-59.439 8.778h-498.642c-18.441 0-33.391 14.327-33.391 32zM44.521 864c18.442 0 33.391-14.327 33.391-32v-853.333c0-17.673-14.95-32-33.391-32s-33.391 14.327-33.391 32v853.333c0 17.673 14.95 32 33.391 32z" />
<glyph unicode="&#xe919;" glyph-name="flag-2" d="M279.956 812.695c7.010 16.224 25.844 23.692 42.068 16.682l345.504-149.292c74.010-31.422 124.497-79.726 126.059-140.596 1.549-60.458-45.858-111.739-115.447-147.656l-0.499-0.26-354.137-174.929c-15.845-7.825-35.036-1.327-42.863 14.519s-1.327 35.034 14.518 42.863l353.874 174.805c62.481 32.311 81.156 66.304 80.576 89.017-0.572 22.302-20.437 55.049-87.177 83.362l-345.794 149.417c-16.224 7.010-23.692 25.844-16.682 42.068zM288 917.333c17.673 0 32-14.327 32-32v-853.333c0-17.673-14.327-32-32-32s-32 14.327-32 32v853.333c0 17.673 14.327 32 32 32z" />
<glyph unicode="&#xe91a;" glyph-name="folder" d="M139.961 820.039c-21.824-21.824-33.294-62.477-33.294-148.039v-426.667c0-85.564 11.471-126.217 33.294-148.041s62.477-33.293 148.039-33.293h426.667c85.564 0 126.217 11.469 148.041 33.293s33.293 62.477 33.293 148.041v256c0 85.562-11.469 126.216-33.293 148.039s-62.477 33.294-148.041 33.294h-128c-24.222 0-43.874 3.568-60.604 13.68-14.938 9.028-24.666 21.887-31.804 31.325-0.457 0.603-0.9 1.193-1.335 1.766l-0.124 0.162-64 85.334c-12.924 17.232-18.939 24.567-27.199 29.529-7.503 4.507-20.372 8.871-49.601 8.871h-64c-85.562 0-126.216-11.471-148.039-33.294zM94.706 865.294c42.176 42.176 108.189 52.039 193.294 52.039h64c34.77 0 60.941-5.023 82.56-18.009 20.006-12.020 32.956-29.315 44.036-44.116 0.469-0.63 0.939-1.255 1.404-1.875l63.94-85.255c8.909-11.72 11.712-14.836 15.223-16.959 2.684-1.621 9.058-4.453 27.503-4.453h128c85.103 0 151.117-9.863 193.293-52.039s52.041-108.189 52.041-193.294v-256c0-85.103-9.865-151.117-52.041-193.293s-108.19-52.041-193.293-52.041h-426.667c-85.105 0-151.118 9.865-193.294 52.041s-52.039 108.19-52.039 193.293v426.667c0 85.105 9.863 151.118 52.039 193.294z" />
<glyph unicode="&#xe91b;" glyph-name="forward" d="M632.213 687.86l135.147-77.59 135.403-78.169c76.459-44.698 76.796-155.162-0.158-199.556l-135.313-78.114-135.194-77.619c-76.749-44.245-173.005 11.157-173.005 99.823v312.322c0 88.558 96.222 144.256 173.12 98.904zM599.799 632.675c-34.001 20.139-76.706-4.355-76.706-43.72v-312.322c0-39.317 42.846-64.107 77.022-44.386l0.060 0.034 135.253 77.653 135.185 78.042c33.958 19.593 34.325 68.655-0.085 88.832l-0.064 0.043-135.104 77.991-135.561 77.833zM215.787 687.86l135.146-77.591 135.719-78.348c10.889-6.537 20.838-14.374 29.278-24.759 4.634-5.705 7.164-12.83 7.164-20.181v-109.227c0-7.347-2.53-14.473-7.164-20.177-8.439-10.385-18.394-18.223-29.278-24.755l-0.465-0.277-135.32-78.114-135.196-77.619c-76.751-44.258-173.004 11.153-173.004 99.823v312.322c0 88.558 96.22 144.256 173.12 98.904zM183.372 632.675c-34 20.139-76.705-4.355-76.705-43.72v-312.322c0-39.317 42.844-64.107 77.022-44.386l135.312 77.687 134.934 77.897c1.954 1.178 3.661 2.313 5.158 3.418v82.236c-1.498 1.105-3.204 2.244-5.158 3.422l-135 77.936-135.563 77.833z" />
<glyph unicode="&#xe91c;" glyph-name="Frame" d="M798.985 199.872c-22.912 53.013-45.372 104.678-67.388 154.095l-54.357 122.65c-4.045 8.981-6.289 20.663-6.289 30.549-0.9 70.98-0.9 148.701-0.452 236.755v57.954c0 0.449 0 0.449 0 0.449 26.957 8.536 39.983 38.636 38.639 64.244-1.348 24.709-20.668 50.766-54.81 50.766-63.795-0.449-128.939-0.449-191.834-0.449h-96.14c-6.29 0-15.275-0.449-22.912-3.594-23.811-9.884-32.796-29.651-29.651-65.591 1.797-22.912 16.622-39.535 39.983-45.824v-305.943c0-2.697-0.899-5.841-2.695-9.882-7.188-16.175-13.927-32.346-21.115-48.073-7.637-17.071-14.825-34.142-22.463-50.765-32.795-72.781-58.852-132.079-82.663-187.341-17.97-41.331-14.825-89.847 8.985-129.835 23.811-39.535 64.244-63.791 108.271-64.243 57.954 0 115.907-0.448 173.413-0.448 55.706 0 111.415 0.448 166.225 0.448 44.476 0.452 84.907 24.26 108.267 63.795 13.931 22.912 20.668 48.521 20.668 74.129 0 18.867-3.593 38.187-11.682 56.154zM676.339 56.111h-1.796c-47.172 0.9-98.389 1.348-160.832 1.348-61.551 0-115.46-0.448-164.429-1.348-29.651 0-57.954 15.727-73.228 41.331-16.173 26.057-17.521 58.406-4.044 88.956 45.375 100.629 85.808 191.829 124.893 282.129 4.492 10.334 4.942 21.564 4.942 32.346v10.782c0.449 3.149 0.449 6.293 0.449 9.438 2.246-0.452 4.043-0.9 5.84-1.801 38.189-13.026 76.823-13.026 116.806-0.448 19.767 6.289 40.883 6.289 63.795 0.448 9.434-2.244 18.419-4.941 28.301-7.637l3.597-0.896c-1.348-29.653 10.782-55.258 21.564-77.722 2.244-4.493 4.493-9.434 6.737-15.275 35.042-78.618 69.636-156.791 102.878-231.364 13.478-30.101 12.582-62.447-3.145-88.956-15.723-25.604-43.575-41.331-72.329-41.331zM621.082 563.77l-4.045 1.347c-13.478 3.594-27.853 7.188-42.227 8.087-23.364 0-46.724-2.246-69.636-7.637-26.057-5.84-47.62-6.289-67.388-1.797-9.434 2.246-18.869 4.942-28.753 7.637l-5.391 1.347c0 0-0.449 0-0.449 0.449v227.323h217.889v-236.757zM361.861 865.669c0 0 1.797 0.449 6.289 0.449h178.802c35.042 0 70.537 0 105.574 0.449 6.293 0 7.637-1.348 7.637-2.696 0-12.579-3.145-12.579-5.837-12.579h-284.829c-4.942 0-8.536 0-8.536 10.782 0 0.899 0.899 3.594 0.899 3.594zM525.892 719.014c0-11.218-6.839-18.455-17.442-19.179-9.229-0.362-18.121-0.362-26.671-0.362-9.233 0-18.462 0.362-27.354 0.724-5.129 0-9.233 2.171-12.309 5.789-3.076 3.257-4.446 8.323-4.105 14.113 0.341 10.494 6.839 17.008 17.097 17.37 6.498 0.362 12.996 0 19.49 0h16.414c5.815 0 11.285 0.362 17.097 0 10.944-0.362 17.438-7.238 17.783-18.455zM526.182 669.804c-0.341-10.856-6.839-17.007-17.097-17.369h-53.687c-10.598 0.362-16.755 6.513-17.438 17.369 0 5.428 1.37 10.494 4.446 13.751 2.735 3.619 6.839 5.428 11.627 5.79 18.807 0.724 37.611 0.724 56.418 0 4.446-0.362 8.55-2.171 11.627-5.79 3.076-3.257 4.446-8.323 4.105-13.751zM588.284 135.991c0.341-6.153-1.37-10.854-4.446-14.11-3.422-3.981-8.55-5.79-15.044-5.79h-156.61c-11.968 0-19.149 6.874-19.149 18.453 0 5.79 1.368 10.133 4.445 13.389 3.419 3.618 8.207 5.065 15.387 5.065 0 0 0 0 0.342 0h155.584c12.651 0 19.145-5.79 19.49-17.007zM648.512 152.998c0 0 9.233-2.172 11.627-7.962 2.735-6.511 2.394-16.644-1.365-22.434-4.105-6.874-15.731-7.599-19.149-7.599 0 0 0 0-0.341 0-4.105 0-14.020 0.725-18.125 7.236-3.418 5.79-5.129 17.007-1.365 23.159 2.394 4.706 7.863 7.236 13.333 7.962 3.418 0.363 11.627 0.363 15.386-0.363z" />
<glyph unicode="&#xe91d;" glyph-name="grid-2" d="M42.667 458.667c0 17.673 14.327 32 32 32h853.333c17.673 0 32-14.327 32-32s-14.327-32-32-32h-853.333c-17.673 0-32 14.327-32 32zM501.333 917.333c17.673 0 32-14.327 32-32v-853.333c0-17.673-14.327-32-32-32s-32 14.327-32 32v853.333c0 17.673 14.327 32 32 32zM121.373 838.627c56.937 56.937 142.138 78.706 251.961 78.706h256c109.824 0 195.025-21.769 251.959-78.706 56.939-56.937 78.707-142.138 78.707-251.961v-256c0-109.824-21.769-195.025-78.707-251.959-56.934-56.939-142.135-78.707-251.959-78.707h-256c-109.823 0-195.023 21.769-251.961 78.707-56.937 56.934-78.706 142.135-78.706 251.959v256c0 109.823 21.769 195.023 78.706 251.961zM166.627 793.373c-39.063-39.063-59.961-103.195-59.961-206.706v-256c0-103.509 20.898-167.642 59.961-206.707 39.063-39.061 103.195-59.959 206.706-59.959h256c103.509 0 167.642 20.898 206.707 59.959 39.061 39.066 59.959 103.198 59.959 206.707v256c0 103.511-20.898 167.643-59.959 206.706-39.066 39.063-103.198 59.961-206.707 59.961h-256c-103.511 0-167.643-20.898-206.706-59.961z" />
<glyph unicode="&#xe91e;" glyph-name="grid-4" d="M373.333 917.333c17.673 0 32-14.327 32-32v-853.333c0-17.673-14.327-32-32-32s-32 14.327-32 32v853.333c0 17.673 14.327 32 32 32zM121.373 838.627c56.937 56.937 142.138 78.706 251.961 78.706h256c109.824 0 195.025-21.769 251.959-78.706 56.939-56.937 78.707-142.138 78.707-251.961v-256c0-109.824-21.769-195.025-78.707-251.959-56.934-56.939-142.135-78.707-251.959-78.707h-256c-109.823 0-195.023 21.769-251.961 78.707-56.937 56.934-78.706 142.135-78.706 251.959v256c0 109.823 21.769 195.023 78.706 251.961zM166.627 793.373c-39.063-39.063-59.961-103.195-59.961-206.706v-256c0-103.509 20.898-167.642 59.961-206.707 39.063-39.061 103.195-59.959 206.706-59.959h256c103.509 0 167.642 20.898 206.707 59.959 39.061 39.066 59.959 103.198 59.959 206.707v256c0 103.511-20.898 167.643-59.959 206.706-39.066 39.063-103.198 59.961-206.707 59.961h-256c-103.511 0-167.643-20.898-206.706-59.961z" />
<glyph unicode="&#xe91f;" glyph-name="grid-9" d="M501.333 917.333c17.673 0 32-14.327 32-32v-853.333c0-17.673-14.327-32-32-32s-32 14.327-32 32v853.333c0 17.673 14.327 32 32 32zM121.373 838.627c56.937 56.937 142.138 78.706 251.961 78.706h256c109.824 0 195.025-21.769 251.959-78.706 56.939-56.937 78.707-142.138 78.707-251.961v-256c0-109.824-21.769-195.025-78.707-251.959-56.934-56.939-142.135-78.707-251.959-78.707h-256c-109.823 0-195.023 21.769-251.961 78.707-56.937 56.934-78.706 142.135-78.706 251.959v256c0 109.823 21.769 195.023 78.706 251.961zM166.627 793.373c-39.063-39.063-59.961-103.195-59.961-206.706v-256c0-103.509 20.898-167.642 59.961-206.707 39.063-39.061 103.195-59.959 206.706-59.959h256c103.509 0 167.642 20.898 206.707 59.959 39.061 39.066 59.959 103.198 59.959 206.707v256c0 103.511-20.898 167.643-59.959 206.706-39.066 39.063-103.198 59.961-206.707 59.961h-256c-103.511 0-167.643-20.898-206.706-59.961z" />
<glyph unicode="&#xe920;" glyph-name="headphone" d="M499.285 853.333c-221.774 0-396.884-179.327-392.539-401.293l0.006-0.627v-262.827c0-65.156 54.851-120.32 120.32-120.32 65.527 0 120.32 54.793 120.32 120.32v119.893c0 27.17-21.53 46.507-46.507 46.507-27.17 0-46.507-21.53-46.507-46.507v-124.587c0-17.673-14.327-32-32-32s-32 14.327-32 32v124.587c0 57.796 45.517 110.507 110.507 110.507 57.797 0 110.507-45.517 110.507-110.507v-119.893c0-100.873-83.447-184.32-184.32-184.32-100.931 0-184.32 83.93-184.32 184.32v262.519c-4.868 257.46 198.84 466.227 456.533 466.227 257.728 0 460.8-208.73 460.8-461.227v-262.827c0-100.873-83.447-184.32-184.32-184.32s-184.32 83.447-184.32 184.32v119.893c0 57.796 45.517 110.507 110.507 110.507 57.796 0 110.507-45.517 110.507-110.507v-129.28c0-17.673-14.327-32-32-32s-32 14.327-32 32v129.28c0 27.17-21.53 46.507-46.507 46.507-27.17 0-46.507-21.53-46.507-46.507v-119.893c0-65.527 54.793-120.32 120.32-120.32s120.32 54.793 120.32 120.32v262.827c0 217.69-174.955 397.227-396.8 397.227z" />
<glyph unicode="&#xe921;" glyph-name="heart" d="M311.893 810.667c-113.164 0-205.227-92.19-205.227-206.507 0-138.688 64.029-249.809 144.607-332.369 80.964-82.957 176.669-134.916 233.944-154.466l0.311-0.107c2.765-0.977 8.491-2.018 15.804-2.018s13.039 1.041 15.804 2.014l0.311 0.111c57.271 19.554 152.981 71.509 233.946 154.466 80.576 82.56 144.606 193.681 144.606 332.369 0 114.317-92.062 206.507-205.227 206.507-66.654 0-126.421-32.389-163.75-82.652-6.037-8.129-15.565-12.921-25.69-12.921s-19.652 4.792-25.69 12.921c-37.35 50.289-96.701 82.652-163.75 82.652zM42.667 604.16c0 149.363 120.418 270.507 269.227 270.507 74.101 0 140.996-30.122 189.453-78.708 48.563 48.601 115.708 78.708 189.427 78.708 148.809 0 269.227-121.143 269.227-270.507 0-159.979-74.21-286.298-162.807-377.071-88.145-90.313-192.457-147.563-258.923-170.283-11.703-4.1-25.105-5.606-36.937-5.606s-25.233 1.506-36.937 5.606c-66.464 22.72-170.778 79.97-258.924 170.283-88.595 90.773-162.806 217.092-162.806 377.071z" />
<glyph unicode="&#xe922;" glyph-name="home" d="M479.305 917.268c44.177 1.036 90.129-10.188 126.566-35.696l263.625-184.709c26.436-18.434 48.721-46.854 64.311-76.725 15.599-29.883 26.193-64.42 26.193-96.729v-310.613c0-116.181-94.916-211.627-211.627-211.627h-494.080c-116.759 0-211.627 95.492-211.627 212.053v316.16c0 30.315 9.575 63.126 23.645 91.803 14.072 28.681 34.191 56.386 58.233 75.093l229.973 179.2c35.189 27.369 80.605 40.754 124.787 41.789zM393.833 824.977l-229.951-179.183c-14.348-11.159-29.017-30.184-40.114-52.8-11.103-22.63-17.102-45.711-17.102-63.612v-316.16c0-81.412 66.412-148.053 147.627-148.053h494.080c81.263 0 147.627 66.692 147.627 147.627v310.613c0 19.32-6.686 43.663-18.927 67.113-12.241 23.452-28.378 42.829-44.169 53.835l-0.068 0.045-263.667 184.739c-23.292 16.3-55.215 24.921-88.367 24.144-33.148-0.777-64.559-10.882-86.969-28.308zM501.333 363.84c17.673 0 32-14.327 32-32v-128c0-17.673-14.327-32-32-32s-32 14.327-32 32v128c0 17.673 14.327 32 32 32z" />
<glyph unicode="&#xe923;" glyph-name="lamp-charge" d="M637.235 1.024c-91.994 26.112-189.197 26.112-281.192 0-17.002-4.826-34.696 5.047-39.522 22.046-4.826 17.003 5.045 34.697 22.046 39.522 103.421 29.355 212.724 29.355 316.144 0 16.998-4.826 26.871-22.519 22.046-39.522-4.826-16.998-22.524-26.871-39.522-22.046zM566.579 845.777c-199.003 43.332-374.579-106.594-374.579-297.704 0-109.481 72.739-215.682 163.325-270.428 9.589-5.794 15.449-16.183 15.449-27.383v-49.493c0-2.854-0.080-5.692-0.144-7.932-0.003-0.119-0.006-0.239-0.010-0.358 2.361-0.179 5.27-0.277 8.823-0.247l0.291 0.004h235.093c4.314 0 7.232 0.358 9.092 0.725 0.009 0.653 0.004 1.395-0.013 2.283-0.017 0.849-0.038 1.57-0.068 2.615-0.021 0.917-0.051 2.112-0.051 3.337v49.493c0 11.209 5.867 21.598 15.462 27.392 127.117 76.745 210.419 250.227 130.394 411.043-39.458 79.3-115.712 137.312-203.063 156.654zM370.668 184.469c-0.001 0-0.007 0.034-0.016 0.102l0.016-0.102zM128 548.073c0 231.275 212.663 412.433 452.254 360.227l0.098-0.022c105.481-23.337 198.165-93.318 246.592-190.643 94.869-190.65 0.969-390.168-139.157-484.478v-31.962c0-0.047 0.009-0.175 0.021-0.38 0.213-3.029 1.613-23.006-7.006-39.539-12.109-23.215-36.45-33.041-65.975-33.041h-234.951c-23.924-0.205-51.59 3.477-65.732 27.277-6.295 10.594-7.312 21.453-7.55 28.19-0.125 3.537-0.046 6.989 0.026 9.673 0.015 0.525 0.028 1.024 0.042 1.506 0.062 2.227 0.112 4.015 0.112 5.888v31.957c-98.721 66.334-178.773 185.766-178.773 315.347zM512.602 661.571c15.317-8.813 20.595-28.375 11.78-43.695l-36.471-63.404h35.614c17.079 0 37.53-6.319 48.508-25.62 10.884-19.132 6.042-39.77-2.436-54.362l-45.15-79.223c-8.751-15.356-28.292-20.706-43.644-11.955-15.356 8.747-20.71 28.288-11.959 43.644l36.198 63.518h-35.703c-17.114 0-37.278 6.464-48.238 25.425-10.98 18.998-6.48 39.712 2.205 54.618l45.602 79.272c8.815 15.319 28.378 20.593 43.695 11.781z" />
<glyph unicode="&#xe924;" glyph-name="lamp-on" d="M637.235 1.024c-91.994 26.112-189.197 26.112-281.192 0-17.002-4.826-34.696 5.047-39.522 22.046-4.826 17.003 5.045 34.697 22.046 39.522 103.421 29.355 212.724 29.355 316.144 0 16.998-4.826 26.871-22.519 22.046-39.522-4.826-16.998-22.524-26.871-39.522-22.046zM566.579 845.777c-199.003 43.332-374.579-106.594-374.579-297.704 0-109.481 72.739-215.682 163.325-270.428 9.589-5.794 15.449-16.183 15.449-27.383v-49.493c0-2.854-0.080-5.692-0.144-7.932-0.003-0.119-0.006-0.239-0.010-0.358 2.361-0.179 5.27-0.277 8.823-0.247l0.291 0.004h235.093c4.314 0 7.232 0.358 9.092 0.725 0.009 0.653 0.004 1.395-0.013 2.283-0.017 0.849-0.038 1.57-0.068 2.615-0.021 0.917-0.051 2.112-0.051 3.337v49.493c0 11.209 5.867 21.598 15.462 27.392 127.117 76.745 210.419 250.227 130.394 411.043-39.458 79.3-115.712 137.312-203.063 156.654zM370.668 184.469c-0.001 0-0.007 0.034-0.016 0.102l0.016-0.102zM128 548.073c0 231.275 212.663 412.433 452.254 360.227l0.098-0.022c105.481-23.337 198.165-93.318 246.592-190.643 94.869-190.65 0.969-390.168-139.157-484.478v-31.962c0-0.047 0.009-0.175 0.021-0.38 0.213-3.029 1.613-23.006-7.006-39.539-12.109-23.215-36.45-33.041-65.975-33.041h-234.951c-23.924-0.205-51.59 3.477-65.732 27.277-6.295 10.594-7.312 21.453-7.55 28.19-0.125 3.537-0.046 6.989 0.026 9.673 0.015 0.525 0.028 1.024 0.042 1.506 0.062 2.227 0.112 4.015 0.112 5.888v31.957c-98.721 66.334-178.773 185.766-178.773 315.347z" />
<glyph unicode="&#xe925;" glyph-name="lamp-slash" d="M634.244 1.015c-91.994 26.112-189.197 26.112-281.191 0-17.002-4.826-34.696 5.043-39.522 22.046s5.044 34.697 22.046 39.522c103.42 29.355 212.723 29.355 316.143 0 17.003-4.826 26.871-22.519 22.046-39.522s-22.519-26.871-39.522-22.046zM785.28 689.523c16.862 5.301 34.825-4.069 40.124-20.928 54.831-174.374-28.126-348.023-149.564-434.871v-32.542c0-0.081 0.013-0.282 0.030-0.585 0.213-3.678 1.327-22.677-6.502-38.635-5.030-10.249-13.312-19.388-25.318-25.549-11.443-5.871-24.593-8.192-38.609-8.192h-221.868c-23.3 0-50.267 4.297-63.672 28.497-5.735 10.351-6.665 20.851-6.889 27.435-0.118 3.46 0.014 9.583 0.099 13.564 0.035 1.613 0.062 2.871 0.062 3.465v32.38c-17.173 12.156-33.316 26.082-48.654 41.421-12.497 12.497-12.497 32.759 0 45.257s32.758 12.497 45.255 0c16.955-16.956 34.285-31.13 52.359-42.428 9.356-5.845 15.040-16.102 15.040-27.136v-49.493c0-2.795-0.073-5.585-0.131-7.812-0.009-0.329-0.017-0.64-0.024-0.943 1.821-0.124 3.991-0.205 6.555-0.205h221.868c2.906 0 5.022 0.201 6.507 0.431 0.017 0.759 0.013 1.634-0.004 2.675-0.009 0.623-0.021 1.195-0.038 1.86-0.004 0.235-0.013 0.482-0.017 0.747-0.021 0.909-0.047 2.069-0.047 3.247v49.493c0 10.901 5.547 21.047 14.72 26.935 108.766 69.781 184.883 222.029 137.792 371.788-5.299 16.859 4.070 34.824 20.928 40.125zM555.063 846.616c-182.109 39.828-346.001-106.607-346.001-298.555 0-41.121 9.522-81.608 25.952-119.551 7.022-16.218-0.433-35.059-16.651-42.082s-35.058 0.435-42.080 16.653c-19.41 44.826-31.221 93.943-31.221 144.98 0 227.034 196.207 410.836 423.693 361.074 69.086-15.142 130.253-51.973 177.067-102.533 12.006-12.968 11.23-33.214-1.737-45.222-12.971-12.007-33.216-11.229-45.222 1.74-38.515 41.597-88.303 71.33-143.799 83.496zM858.893 887.279c12.497-12.497 12.497-32.758 0-45.255l-676.265-676.268c-12.497-12.497-32.758-12.497-45.255 0s-12.497 32.759 0 45.257l676.268 676.266c12.497 12.497 32.755 12.497 45.252 0z" />
<glyph unicode="&#xe926;" glyph-name="like" d="M159.305 630.264c-4.212-3.888-9.972-13.159-9.972-39.42v-418.134c0-26.261 5.76-35.533 9.972-39.42 4.841-4.467 15.948-9.647 43.362-9.647h42.667c27.414 0 38.521 5.18 43.362 9.647 4.212 3.887 9.972 13.158 9.972 39.42v418.134c0 26.261-5.76 35.532-9.972 39.42-4.841 4.468-15.948 9.647-43.362 9.647h-42.667c-27.414 0-38.521-5.178-43.362-9.647zM115.895 677.292c22.893 21.132 54.452 26.619 86.772 26.619h42.667c32.319 0 63.879-5.488 86.772-26.619 23.521-21.712 30.562-52.975 30.562-86.447v-418.134c0-33.472-7.040-64.734-30.562-86.447-22.893-21.133-54.452-26.62-86.772-26.62h-42.667c-32.319 0-63.879 5.487-86.772 26.62-23.521 21.713-30.562 52.975-30.562 86.447v418.134c0 33.473 7.040 64.735 30.562 86.447zM614.409 868.484c52.173-17.71 87.859-74.866 76.267-129.889l-21.154-135.373c-0.806-5.925 0.934-9.193 2.475-10.937 1.783-2.023 4.706-3.572 8.538-3.572h170.667c40.657 0 76.489-16.488 98.295-46.084 21.879-29.699 26.697-68.628 13.052-107.207l-101.943-310.080c-8.785-33.715-30.865-61.606-57.173-80.853-26.598-19.465-59.759-31.774-93.030-31.774h-162.133c-15.889 0-34.846 2.577-52.523 7.629-16.247 4.642-35.418 12.489-49.51 25.732l-130.89 101.333 39.179 50.607 133.87-103.642 1.434-1.434c2.846-2.846 10.526-7.351 23.497-11.059 12.19-3.482 25.233-5.167 34.944-5.167h162.133c17.929 0 38.101 6.886 55.236 19.422 17.114 12.523 28.949 28.996 33.186 45.939l0.282 1.126 103.027 313.34c7.509 21.026 3.75 37.389-4.16 48.124-8.060 10.935-23.428 20.049-46.771 20.049h-170.667c-44.514 0-81.442 38.031-74.347 87.724l0.060 0.415 21.495 137.54 0.222 0.995c4.719 21.249-10.368 48.574-34.351 56.567l-0.559 0.187-0.555 0.208c-8.661 3.248-20.045 3.173-31.697-0.833-11.87-4.080-20.433-11.005-24.311-16.822l-0.064-0.1-174.935-260.266-53.117 35.7 174.902 260.223c13.193 19.754 34.479 34.142 56.721 41.788 22.315 7.671 49.101 9.756 74.411 0.442z" />
<glyph unicode="&#xe927;" glyph-name="lock" d="M287.766 288c0 23.565 19.102 42.667 42.667 42.667h0.383c23.564 0 42.667-19.102 42.667-42.667s-19.103-42.667-42.667-42.667h-0.383c-23.564 0-42.667 19.102-42.667 42.667zM458.475 288c0 23.565 19.102 42.667 42.667 42.667h0.384c23.561 0 42.667-19.102 42.667-42.667s-19.106-42.667-42.667-42.667h-0.384c-23.565 0-42.667 19.102-42.667 42.667zM629.184 288c0 23.565 19.102 42.667 42.667 42.667h0.38c23.565 0 42.667-19.102 42.667-42.667s-19.102-42.667-42.667-42.667h-0.38c-23.565 0-42.667 19.102-42.667 42.667zM139.961 478.707c-21.824-21.824-33.294-62.477-33.294-148.041v-85.333c0-85.564 11.471-126.217 33.294-148.041s62.477-33.293 148.039-33.293h426.667c85.564 0 126.217 11.469 148.041 33.293s33.293 62.477 33.293 148.041v85.333c0 85.564-11.469 126.217-33.293 148.041s-62.477 33.293-148.041 33.293h-426.667c-85.562 0-126.216-11.469-148.039-33.293zM94.706 523.959c42.176 42.178 108.189 52.041 193.294 52.041h426.667c85.103 0 151.117-9.863 193.293-52.041 42.176-42.176 52.041-108.19 52.041-193.293v-85.333c0-85.103-9.865-151.117-52.041-193.293s-108.19-52.041-193.293-52.041h-426.667c-85.105 0-151.118 9.865-193.294 52.041s-52.039 108.19-52.039 193.293v85.333c0 85.103 9.863 151.117 52.039 193.293zM318.254 790.219c-30.24-37.542-40.92-92.187-40.92-160.886v-85.333c0-17.673-14.327-32-32-32s-32 14.327-32 32v85.333c0 72.528 10.653 145.882 55.080 201.034 45.63 56.646 120.777 86.966 232.92 86.966 112.145 0 187.29-30.319 232.922-86.966 44.425-55.152 55.078-128.506 55.078-201.034v-85.333c0-17.673-14.327-32-32-32s-32 14.327-32 32v85.333c0 68.699-10.679 123.344-40.922 160.886-29.035 36.047-81.89 63.114-183.078 63.114-101.19 0-154.043-27.067-183.080-63.114z" />
<glyph unicode="&#xe928;" glyph-name="login" d="M506.441 602.466c12.497 12.497 32.759 12.497 45.257 0l142.933-142.933c12.493-12.497 12.493-32.759 0-45.257l-142.933-142.933c-12.497-12.497-32.759-12.497-45.257 0s-12.497 32.759 0 45.257l120.307 120.307-120.307 120.305c-12.497 12.497-12.497 32.758 0 45.255zM42.667 436.907c0 17.673 14.327 32 32 32h549.547c17.673 0 32-14.327 32-32s-14.327-32-32-32h-549.547c-17.673 0-32 14.327-32 32zM461.871 767.258c-33.724-27.365-54.717-71.634-60.919-143.657-1.516-17.608-17.019-30.653-34.627-29.136s-30.653 17.019-29.137 34.627c7.025 81.577 32.111 145.468 84.359 187.863 51.366 41.679 123.153 57.711 212.484 57.711h5.547c98.522 0 175.825-19.532 227.691-71.399 51.87-51.867 71.403-129.169 71.403-227.694v-278.187c0-98.526-19.533-175.825-71.403-227.695-51.866-51.866-129.169-71.398-227.691-71.398h-5.547c-88.683 0-160.038 15.817-211.298 56.823-52.186 41.749-77.603 104.708-85.098 185.114-1.641 17.596 11.295 33.19 28.892 34.833 17.597 1.638 33.191-11.298 34.832-28.894 6.585-70.635 27.672-114.129 61.353-141.073 34.607-27.686 88.478-42.803 171.319-42.803h5.547c92.194 0 148.437 18.654 182.438 52.655 34.001 33.997 52.655 90.244 52.655 182.438v278.187c0 92.195-18.654 148.439-52.655 182.439s-90.244 52.654-182.438 52.654h-5.547c-83.473 0-137.553-15.328-172.16-43.409z" />
<glyph unicode="&#xe929;" glyph-name="logout" d="M282.894 602.466c12.497-12.497 12.497-32.758 0-45.255l-120.306-120.305 120.306-120.307c12.497-12.497 12.497-32.759 0-45.257s-32.758-12.497-45.255 0l-142.933 142.933c-12.497 12.497-12.497 32.759 0 45.257l142.933 142.933c12.497 12.497 32.758 12.497 45.255 0zM133.12 436.907c0 17.673 14.327 32 32 32h485.547c17.673 0 32-14.327 32-32s-14.327-32-32-32h-485.547c-17.673 0-32 14.327-32 32zM483.204 767.258c-33.724-27.365-54.716-71.634-60.919-143.657-1.516-17.608-17.019-30.653-34.627-29.136s-30.653 17.019-29.137 34.627c7.025 81.577 32.111 145.468 84.359 187.863 51.366 41.679 123.153 57.711 212.484 57.711h5.547c98.522 0 175.825-19.532 227.691-71.399 51.87-51.867 71.403-129.169 71.403-227.694v-278.187c0-98.526-19.533-175.825-71.403-227.695-51.866-51.866-129.169-71.398-227.691-71.398h-5.547c-88.683 0-160.038 15.817-211.298 56.823-52.186 41.749-77.603 104.708-85.098 185.114-1.641 17.596 11.295 33.19 28.892 34.833 17.597 1.638 33.191-11.298 34.832-28.894 6.586-70.635 27.672-114.129 61.353-141.073 34.607-27.686 88.478-42.803 171.319-42.803h5.547c92.194 0 148.437 18.654 182.438 52.655 34.001 33.997 52.655 90.244 52.655 182.438v278.187c0 92.195-18.654 148.439-52.655 182.439s-90.244 52.654-182.438 52.654h-5.547c-83.473 0-137.553-15.328-172.16-43.409z" />
<glyph unicode="&#xe92a;" glyph-name="moon" d="M563.563-0.277c-7.253 0-14.507 0-21.333 0.427-239.361 10.667-439.468 203.093-455.681 438.187-14.507 200.96 101.973 389.12 290.133 468.053 52.908 22.613 81.494 5.12 93.441-7.253 11.52-11.52 28.16-39.253 5.973-90.453-19.627-45.227-29.44-93.44-29.013-142.507 0.853-189.44 157.44-349.44 349.44-357.547 27.733-0.853 54.613 0.427 81.92 5.547 56.32 10.24 79.787-12.373 88.747-26.88s19.2-45.653-15.36-92.16c-90.027-123.307-234.24-195.413-388.267-195.413zM423.188 853.483c-3.84 0-10.667-1.28-21.76-5.547-162.56-69.12-263.68-231.68-251.307-404.907 14.080-203.093 187.307-369.493 394.241-378.453 140.373-5.12 273.493 57.173 355.413 168.96 6.827 8.96 9.387 15.36 10.667 19.2-3.84 0.427-10.667 0.853-21.333-1.28-31.573-5.547-64-8.107-96-6.4-224.853 8.96-409.174 197.973-410.028 420.693-0.427 58.453 11.093 115.2 34.56 168.533 3.84 9.387 5.12 15.787 5.547 19.2z" />
<glyph unicode="&#xe92b;" glyph-name="music" d="M902.549 702.844c4.651-17.050-5.402-34.642-22.451-39.292l-488.108-133.12c-17.050-4.651-34.642 5.402-39.292 22.452s5.402 34.642 22.453 39.292l488.107 133.12c17.050 4.65 34.641-5.402 39.292-22.452zM738.556 351.808c-55.846 0-101.12-45.274-101.12-101.12s45.274-101.12 101.12-101.12c55.851 0 101.12 45.274 101.12 101.12s-45.269 101.12-101.12 101.12zM573.436 250.688c0 91.191 73.929 165.12 165.12 165.12 91.196 0 165.12-73.929 165.12-165.12 0-91.196-73.924-165.12-165.12-165.12-91.191 0-165.12 73.924-165.12 165.12zM844.254 901.196c39.654-23.179 59.426-68.117 59.426-129.973l-0.004-520.535c0-17.673-14.323-32-31.996-32s-32.004 14.327-32.004 32l0.004 520.535c0 49.077-15.002 67.285-27.721 74.72-15.177 8.871-39.77 10.238-71.808 1.501l-266.249-72.536c-35.601-9.681-58.33-36.098-58.33-76.218v-536.321c0-17.673-14.327-32-32-32s-32 14.327-32 32v536.321c0 70.807 43.838 121.193 105.511 137.969-0.004-0.001 0.004 0.001 0 0l266.231 72.53c-0.004-0.001 0 0.001 0 0 38.362 10.461 83.746 13.749 120.939-7.992zM250.453 263.061c-55.847 0-101.12-45.274-101.12-101.12s45.273-101.12 101.12-101.12c55.847 0 101.12 45.274 101.12 101.12s-45.273 101.12-101.12 101.12zM85.333 161.941c0 91.196 73.927 165.12 165.12 165.12s165.12-73.924 165.12-165.12c0-91.191-73.927-165.12-165.12-165.12s-165.12 73.929-165.12 165.12z" />
<glyph unicode="&#xe92c;" glyph-name="musicnote" d="M553.207 845.332c10.603 7.633 27.631 11.551 50.526 3.815l188.625-62.734c0.017-0.005 0.034-0.011 0.047-0.016 15.36-5.181 31.014-17.198 42.957-33.697 11.955-16.519 18.402-35.055 18.402-51.157v-49.92c0-24.276-9.088-39.134-19.635-46.746-10.551-7.615-27.533-11.546-50.522-3.942 0.004-0.003-0.009 0.002 0 0l-188.442 62.671c-0.013 0.005-0.030 0.010-0.043 0.015-15.36 5.181-31.014 17.198-42.957 33.698-11.955 16.519-18.402 35.055-18.402 51.158v50.557c-0.158 23.866 8.849 38.673 19.443 46.299zM624.145 909.804c-38.95 13.139-78.208 9.154-108.331-12.531-30.127-21.687-46.289-57.609-46.050-98.55v-50.247c0-32.111 12.326-63.495 30.558-88.683 18.231-25.19 44.156-46.659 74.436-56.847l188.736-62.769c38.865-12.864 78.003-8.913 108.092 12.805 30.093 21.721 46.178 57.636 46.178 98.641v49.92c0 32.111-12.326 63.494-30.558 88.682-18.231 25.19-44.16 46.659-74.441 56.847l-188.621 62.732zM501.333 830.823c17.673 0 32-14.327 32-32v-597.334c0-17.673-14.327-32-32-32s-32 14.327-32 32v597.334c0 17.673 14.327 32 32 32zM330.667 340.156c-76.584 0-138.667-62.084-138.667-138.667s62.083-138.667 138.667-138.667c76.584 0 138.667 62.084 138.667 138.667s-62.083 138.667-138.667 138.667zM128 201.489c0 111.932 90.737 202.667 202.667 202.667 111.932 0 202.667-90.735 202.667-202.667 0-111.927-90.735-202.667-202.667-202.667-111.93 0-202.667 90.739-202.667 202.667z" />
<glyph unicode="&#xe92d;" glyph-name="next" d="M864 739.995c-17.673 0-32-14.327-32-32v-527.361c0-17.673 14.327-32 32-32s32 14.327 32 32v527.361c0 17.673-14.327 32-32 32zM192.855 648.262c0 59.283 64.105 96.158 115.431 66.57l177.030-101.951 177.105-102.421c51.174-29.5 51.174-103.211 0-132.715l-0.038-0.021-177.067-102.4-177.018-101.943c-51.234-29.538-115.443 7.599-115.443 66.56v408.322zM340.238 770.285c-93.738 54.026-211.383-13.204-211.383-122.023v-408.322c0-108.284 117.552-176.102 211.383-122.022l177.065 101.973 177.079 102.409c93.862 54.127 93.884 189.466 0.021 243.594l-177.101 102.418-177.066 101.973z" />
<glyph unicode="&#xe92e;" glyph-name="note" horiz-adv-x="1067" d="M685.662 88.38c-11.093 0-22.613 0.427-34.56 1.711-22.613 1.707-47.36 5.969-73.813 12.369l-71.68 17.067c-196.692 46.507-261.118 150.613-215.038 346.88l42.24 178.775c9.387 40.533 20.48 73.387 34.133 100.693 73.385 151.467 213.758 137.813 313.598 114.347l71.253-16.64c100.267-23.467 163.413-60.587 198.4-117.333s40.533-129.707 17.067-229.549l-41.813-178.347c-36.693-156.16-113.493-229.973-239.787-229.973zM571.315 810.729c-71.253 0-116.48-29.44-147.198-93.013-11.093-22.613-20.907-51.2-29.013-87.040l-41.813-178.775c-37.973-161.276 5.973-231.68 167.252-270.080l71.68-17.062c23.040-5.547 44.8-9.387 64.427-10.667 115.627-11.098 173.653 38.827 206.080 178.769l41.813 178.347c19.2 82.349 16.64 139.949-8.96 181.335s-75.947 69.547-158.72 88.747l-71.253 16.64c-35.84 8.533-66.987 12.8-94.293 12.8zM366.517 0.064c-109.653 0-179.2 65.707-224.427 204.369l-54.613 168.533c-30.72 95.147-31.147 166.402-2.133 224.002 29.44 57.6 87.467 98.987 182.613 129.707l67.413 22.187c21.76 6.827 38.827 11.52 53.76 14.080 12.373 2.56 24.32-2.133 31.573-11.947s8.532-22.613 3.413-33.707c-11.093-22.613-20.48-51.2-29.013-87.040l-41.813-178.349c-37.973-161.276 5.973-231.68 167.252-270.080l71.68-17.062c23.040-5.547 44.8-9.387 64.427-10.667 13.653-1.284 24.747-10.671 28.587-23.898 3.413-13.227-1.707-26.88-12.8-34.56-28.16-19.2-63.573-35.409-108.373-49.916l-67.413-22.187c-48.64-15.791-91.732-23.467-130.132-23.467zM343.050 684.009l-55.040-17.92c-78.080-25.173-124.16-56.32-145.493-98.133-21.333-41.815-19.2-97.282 5.973-175.362l54.613-168.533c49.493-152.32 121.173-189.013 273.492-139.947l67.413 22.187c2.56 0.853 4.693 1.707 7.253 2.56l-45.227 10.667c-196.692 46.507-261.118 150.613-215.038 346.88l41.813 178.775c2.987 14.080 6.4 26.88 10.24 38.827z" />
<glyph unicode="&#xe92f;" glyph-name="notification" d="M407.302 144.209c0-26.133 10.872-50.526 28.175-67.827 17.301-17.301 41.69-28.173 67.823-28.173 52.727 0 96 43.273 96 96h64c0-88.073-71.923-160-160-160-43.836 0-84.301 18.142-113.079 46.921-28.777 28.774-46.919 69.239-46.919 113.079h64zM215.299 577.276c0 158.9 129.1 288 288.001 288 158.473 0 288-129.527 288-288v-123.307c0-9.169 2.074-22.583 6.007-36.924 3.883-14.161 8.9-26.752 13.47-34.743l48.922-81.254c38.639-64.397 7.753-148.284-63.428-171.844-190.46-63.625-395.959-63.62-586.418 0.017l-0.119 0.038c-35.943 12.164-62.898 37.316-74.95 69.867-12.066 32.585-7.961 69.261 11.71 101.956l49.032 81.434c4.672 7.855 9.79 20.399 13.74 34.628 3.962 14.268 6.034 27.669 6.034 36.826v123.307zM503.3 801.276c-123.554 0-224.001-100.447-224.001-224v-123.307c0-16.87-3.474-36.322-8.366-53.948-4.895-17.63-11.922-35.998-20.468-50.33l-0.071-0.124-49.062-81.485c-10.618-17.651-11.21-34.095-6.53-46.737 4.69-12.663 15.904-24.832 35.393-31.445 177.295-59.221 368.555-59.213 545.843 0.021l0.098 0.030c32.030 10.59 46.349 48.691 28.698 78.144l-49.365 81.988c-8.196 14.204-15.057 32.444-19.883 50.035-4.813 17.557-8.286 36.992-8.286 53.85v123.307c0 123.127-100.873 224-224 224z" />
<glyph unicode="&#xe930;" glyph-name="notification-1" d="M121.373 838.627c56.937 56.937 142.138 78.706 251.961 78.706h213.333c17.673 0 32-14.327 32-32s-14.327-32-32-32h-213.333c-103.511 0-167.643-20.898-206.706-59.961s-59.961-103.195-59.961-206.706v-256c0-103.509 20.898-167.642 59.961-206.707 39.063-39.061 103.195-59.959 206.706-59.959h256c103.509 0 167.642 20.898 206.707 59.959 39.061 39.066 59.959 103.198 59.959 206.707v213.333c0 17.673 14.327 32 32 32s32-14.327 32-32v-213.333c0-109.824-21.769-195.025-78.707-251.959-56.934-56.939-142.135-78.707-251.959-78.707h-256c-109.823 0-195.023 21.769-251.961 78.707-56.937 56.934-78.706 142.135-78.706 251.959v256c0 109.823 21.769 195.023 78.706 251.961zM800 853.333c-53.018 0-96-42.981-96-96s42.982-96 96-96c53.018 0 96 42.981 96 96s-42.982 96-96 96zM640 757.333c0 88.366 71.633 160 160 160s160-71.634 160-160c0-88.366-71.633-160-160-160s-160 71.634-160 160z" />
<glyph unicode="&#xe931;" glyph-name="notification-bing" d="M497.225-6.4c-45.653 0-90.455 18.773-122.881 51.2s-51.2 77.227-51.2 122.88h64c0-28.587 11.947-57.173 32.427-77.653s49.068-32.427 77.655-32.427c60.587 0 110.080 49.493 110.080 110.080h64c0-96-78.080-174.080-174.080-174.080zM498.078 102.827c-110.081 0-219.735 17.493-324.268 52.053-38.827 12.8-67.84 39.68-81.067 75.093-13.227 34.987-8.533 75.093 12.373 110.507l54.187 90.453c11.947 19.627 22.187 57.6 22.187 80.64v89.6c0.427 174.507 142.080 316.16 316.588 316.16 174.080 0 316.16-141.653 316.587-316.16v-89.6c0-23.040 10.667-61.44 22.187-80.64l54.187-90.453c20.053-33.28 23.467-72.96 10.24-109.227s-42.24-64-78.507-75.947c-104.96-35.413-214.613-52.48-324.693-52.48zM498.078 853.333c-139.095 0-252.161-113.067-252.161-252.16v-89.6c0-34.987-13.653-84.053-31.573-113.92l-54.187-90.453c-11.093-18.347-13.653-37.973-7.253-55.040s20.907-29.867 40.96-36.693c196.267-65.28 412.161-65.28 608.428 0 17.92 5.973 32.427 19.627 38.827 37.547 6.827 17.92 4.693 37.547-5.12 54.187l-54.187 90.453c-17.493 29.013-31.573 79.36-31.573 113.92v89.6c0 139.093-113.493 252.16-252.16 252.16z" />
<glyph unicode="&#xe932;" glyph-name="notification-circle" d="M42.667 458.667c0 253.193 205.474 458.667 458.667 458.667 31.633 0 62.293-3.212 92.369-9.137 17.34-3.415 28.629-20.241 25.216-37.581-3.418-17.34-20.241-28.628-37.581-25.213-26.244 5.169-52.757 7.93-80.004 7.93-217.847 0-394.667-176.82-394.667-394.667s176.82-394.667 394.667-394.667c217.847 0 394.667 176.819 394.667 394.667 0 26.833-2.765 53.286-7.893 78.537-3.516 17.32 7.671 34.212 24.99 37.73s34.21-7.67 37.73-24.99c5.965-29.363 9.173-60.083 9.173-91.276 0-253.193-205.474-458.667-458.667-458.667s-458.667 205.474-458.667 458.667zM800 853.333c-53.018 0-96-42.981-96-96s42.982-96 96-96c53.018 0 96 42.981 96 96s-42.982 96-96 96zM640 757.333c0 88.366 71.633 160 160 160s160-71.634 160-160c0-88.366-71.633-160-160-160s-160 71.634-160 160z" />
<glyph unicode="&#xe933;" glyph-name="play" d="M325.12 40.533c-33.707 0-65.707 8.107-93.867 24.32-66.56 38.4-103.253 116.48-103.253 219.307v303.786c0 103.253 36.693 181.333 103.253 219.733s152.32 31.147 241.92-20.48l263.68-151.893c89.173-51.627 138.667-122.453 138.667-199.253s-49.067-147.627-138.667-199.253l-263.68-151.893c-51.627-29.44-101.973-44.373-148.053-44.373zM325.12 768c-23.040 0-43.947-5.12-61.867-15.787-46.080-26.453-71.253-84.907-71.253-164.267v-303.786c0-79.36 25.173-137.387 71.253-164.267 46.080-26.453 109.227-19.2 177.92 20.48l263.68 151.893c68.693 39.68 106.667 90.453 106.667 143.787 0 52.907-37.973 104.106-106.667 143.786l-263.68 151.893c-41.813 23.893-81.067 36.267-116.053 36.267z" />
<glyph unicode="&#xe934;" glyph-name="previous" d="M160 739.995c17.673 0 32-14.327 32-32v-527.361c0-17.673-14.327-32-32-32s-32 14.327-32 32v527.361c0 17.673 14.327 32 32 32zM831.147 648.262c0 59.283-64.107 96.158-115.435 66.57l-177.028-101.951-177.104-102.421c-51.176-29.5-51.176-103.211 0-132.715l0.038-0.021 177.066-102.4 177.020-101.943c51.234-29.538 115.443 7.599 115.443 66.56v408.322zM683.763 770.285c93.739 54.026 211.383-13.204 211.383-122.023v-408.322c0-108.284-117.555-176.102-211.383-122.022l-177.067 101.973-177.080 102.409c-93.863 54.127-93.884 189.466-0.021 243.594l177.101 102.418 177.067 101.973z" />
<glyph unicode="&#xe935;" glyph-name="record" d="M501.333 810.667c-194.404 0-352-157.596-352-352 0-194.402 157.596-352 352-352 194.402 0 352 157.598 352 352 0 194.404-157.598 352-352 352zM85.333 458.667c0 229.751 186.249 416 416 416s416-186.249 416-416c0-229.751-186.249-416-416-416s-416 186.249-416 416z" />
<glyph unicode="&#xe936;" glyph-name="scanner" horiz-adv-x="1067" d="M64 458.667c0 17.673 14.327 32 32 32h853.333c17.673 0 32-14.327 32-32s-14.327-32-32-32h-853.333c-17.673 0-32 14.327-32 32zM96 362.667c17.673 0 32-14.327 32-32v-85.333c0-56.73 18.769-101.517 49.294-132.041s75.311-49.293 132.039-49.293h426.667c56.73 0 101.517 18.769 132.041 49.293s49.293 75.311 49.293 132.041v85.333c0 17.673 14.327 32 32 32s32-14.327 32-32v-85.333c0-71.27-23.898-133.15-68.041-177.293s-106.022-68.041-177.293-68.041h-426.667c-71.272 0-133.152 23.898-177.294 68.041s-68.039 106.022-68.039 177.293v85.333c0 17.673 14.327 32 32 32zM177.294 804.039c-30.525-30.525-49.294-75.311-49.294-132.039v-85.333c0-17.673-14.327-32-32-32s-32 14.327-32 32v85.333c0 71.272 23.897 133.152 68.039 177.294s106.022 68.039 177.294 68.039h426.667c71.27 0 133.15-23.897 177.293-68.039s68.041-106.022 68.041-177.294v-85.333c0-17.673-14.327-32-32-32s-32 14.327-32 32v85.333c0 56.728-18.769 101.515-49.293 132.039s-75.311 49.294-132.041 49.294h-426.667c-56.728 0-101.515-18.769-132.039-49.294z" />
<glyph unicode="&#xe937;" glyph-name="search-normal" d="M477.091 890.182c-224.93 0-407.273-182.342-407.273-407.273s182.342-407.273 407.273-407.273c224.931 0 407.273 182.342 407.273 407.273s-182.342 407.273-407.273 407.273zM0 482.909c0 263.49 213.601 477.091 477.091 477.091s477.091-213.601 477.091-477.091c0-263.489-213.602-477.091-477.091-477.091s-477.091 213.602-477.091 477.091zM848.044 111.956c13.633 13.633 35.733 13.633 49.366 0l93.091-93.091c13.633-13.633 13.633-35.733 0-49.366s-35.733-13.633-49.366 0l-93.091 93.091c-13.633 13.633-13.633 35.733 0 49.366z" />
<glyph unicode="&#xe938;" glyph-name="security" horiz-adv-x="1067" d="M447.714 839.384l-237.789-97.335c-9.261-3.729-19.409-12.115-27.368-23.955-7.965-11.848-11.891-24.406-11.891-34.254v-187.308c0-193.715 141.33-376.866 334.861-430.366 8.542-2.321 18.057-2.321 26.598 0 193.532 53.5 334.861 236.651 334.861 430.366v0.073l0.427 187.235c-0.009 9.728-3.959 22.281-12.011 34.193-8.051 11.919-18.261 20.35-27.383 24.071l-237.653 97.28c-45.577 18.586-97.079 18.59-142.652 0zM423.538 898.642c61.083 24.921 129.921 24.921 191.003 0l237.653-97.278c23.287-9.51 42.752-27.538 56.243-47.503 13.491-19.969 22.976-44.767 22.976-70.021v-0.073l-0.427-187.235c-0.017-223.526-161.587-431.206-381.879-492.070l-0.098-0.030c-19.593-5.342-40.768-5.342-60.361 0l-0.102 0.030c-220.306 60.868-381.879 268.527-381.879 492.070v187.308c0 25.139 9.301 49.914 22.777 69.96 13.463 20.027 32.936 38.072 56.486 47.581l237.609 97.261z" />
<glyph unicode="&#xe939;" glyph-name="setting" d="M501.333 559.36c-53.018 0-96-42.982-96-96 0-53.022 42.982-96 96-96s96 42.978 96 96c0 53.018-42.982 96-96 96zM341.333 463.36c0 88.365 71.634 160 160 160s160-71.635 160-160c0-88.367-71.633-160-160-160s-160 71.633-160 160zM581.419 897.638l0.081-0.048 234.517-135.593c0.644-0.372 1.271-0.765 1.886-1.18l1.037-0.699c20.454-13.806 37.303-25.179 50.266-35.448 13.393-10.61 24.934-21.771 33.165-36.015 8.418-14.564 11.887-29.733 13.478-45.909 1.485-15.137 1.485-33.355 1.485-54.61v-249.549c0-21.257 0-39.475-1.485-54.609-1.591-16.179-5.060-31.347-13.478-45.909-8.23-14.246-19.772-25.408-33.165-36.015-12.962-10.27-29.811-21.645-50.266-35.447l-1.037-0.7c-0.614-0.418-1.242-0.811-1.886-1.182l-234.594-135.637c-23.586-13.781-52.655-19.699-79.927-19.699-27.328 0-56.457 5.935-80.182 19.661l-234.664 135.676c-0.642 0.371-1.271 0.764-1.886 1.182l-1.039 0.7c-20.451 13.803-37.304 25.178-50.271 35.46-13.403 10.624-24.946 21.807-33.178 36.087-8.41 14.592-11.869 29.798-13.457 46.016-1.487 15.189-1.487 33.481-1.486 54.848v249.118c-0.001 21.255-0.001 39.473 1.487 54.61 1.591 16.176 5.057 31.345 13.475 45.909 8.233 14.244 19.774 25.405 33.167 36.015 12.963 10.27 29.812 21.643 50.267 35.449l1.035 0.698c0.615 0.415 1.244 0.808 1.886 1.18l234.664 135.678c23.726 13.721 52.854 19.659 80.182 19.659 27.273 0 56.337-5.916 79.923-19.695zM501.495 853.333c-19.076 0-36.454-4.303-48.141-11.061l-233.707-135.124c-21.243-14.34-35.778-24.194-46.443-32.643-10.607-8.403-15.067-13.669-17.5-17.878-2.248-3.889-4.116-9.2-5.192-20.144-1.144-11.636-1.18-26.687-1.18-49.815v-246.187c0-23.232 0.035-38.37 1.181-50.074 1.079-11.021 2.953-16.38 5.21-20.292 2.435-4.224 6.891-9.498 17.488-17.899 10.66-8.452 25.19-18.304 46.435-32.644l233.703-135.121c11.686-6.758 29.069-11.063 48.145-11.063 19.093 0 36.284 4.309 47.671 10.978l0.149 0.085 233.702 135.121c21.244 14.34 35.78 24.196 46.443 32.644 10.607 8.405 15.066 13.67 17.502 17.877 2.249 3.891 4.113 9.203 5.193 20.147 1.143 11.635 1.178 26.684 1.178 49.813v246.613c0 23.128-0.034 38.18-1.178 49.815-1.079 10.944-2.944 16.254-5.193 20.144-2.436 4.209-6.895 9.475-17.502 17.878-10.662 8.449-25.199 18.304-46.443 32.643l-233.852 135.209c-11.388 6.666-28.578 10.977-47.671 10.977z" />
<glyph unicode="&#xe93a;" glyph-name="setting-2" d="M399.081 791.050c-11.421 19.027-35.472 24.946-53.333 14.32l-0.465-0.277-73.815-42.236c-23.354-13.345-31.412-43.602-18.053-66.724l-27.708-16.009 27.686 16.047c22.83-39.387 28.967-82.557 8.573-117.945-20.39-35.383-60.801-51.703-106.232-51.703-27.017 0-49.067-22.255-49.067-49.067v-75.093c0-26.807 22.049-49.067 49.067-49.067 45.431 0 85.842-16.32 106.232-51.703s14.257-78.545-8.564-117.926c-13.341-23.121-5.298-53.35 18.048-66.692l74.301-42.517c17.861-10.628 41.91-4.715 53.33 14.31l4.586 7.923c22.821 39.373 57.219 66.206 98.038 66.206 40.853 0 75.149-26.854 97.762-66.27l0.030-0.055 4.514-7.799c11.422-19.029 35.473-24.947 53.333-14.319l0.465 0.277 73.818 42.236c23.292 13.308 31.471 43.145 18.018 66.782-22.784 39.36-28.894 82.487-8.516 117.845 20.39 35.383 60.8 51.703 106.231 51.703 27.017 0 49.067 22.259 49.067 49.067v75.093c0 27.017-22.255 49.067-49.067 49.067-45.431 0-85.841 16.32-106.231 51.703-20.39 35.381-14.259 78.541 8.559 117.922 13.346 23.119 5.303 53.356-18.044 66.699l-74.3 42.519c-17.86 10.626-41.911 4.711-53.333-14.316l-4.582-7.919c-22.822-39.373-57.22-66.207-98.044-66.207-40.845 0-75.136 26.848-97.749 66.26l-0.038 0.066-4.517 7.8zM313.279 860.523c49.469 29.242 112.217 11.302 140.89-36.89l0.192-0.327 4.762-8.227c15.787-27.54 32.252-34.155 42.261-34.155 10.061 0 26.654 6.671 42.654 34.273l4.885 8.436c28.672 48.192 91.422 66.132 140.89 36.889l73.583-42.107c54.298-31.028 72.713-100.621 41.698-154.299l-0.021-0.038c-16-27.6-13.487-45.23-8.495-53.895 4.996-8.67 18.987-19.658 50.782-19.658 61.935 0 113.067-50.484 113.067-113.067v-75.093c0-61.935-50.483-113.067-113.067-113.067-31.795 0-45.786-10.987-50.782-19.657-4.992-8.666-7.505-26.295 8.495-53.897l0.098-0.171c30.857-53.999 12.565-123.102-41.758-154.155l-73.604-42.121c-49.468-29.239-112.213-11.298-140.885 36.89l-0.192 0.329-4.762 8.226c-15.787 27.541-32.252 34.155-42.266 34.155-10.057 0-26.65-6.669-42.65-34.274l-4.885-8.435c-28.671-48.192-91.418-66.129-140.887-36.89l-73.586 42.108c-54.286 31.036-72.709 100.629-41.698 154.3l0.022 0.038c15.997 27.601 13.487 45.231 8.493 53.897-4.996 8.67-18.985 19.657-50.781 19.657-62.583 0-113.067 51.132-113.067 113.067v75.093c0 61.937 50.484 113.067 113.067 113.067 31.796 0 45.785 10.988 50.781 19.658 4.993 8.665 7.504 26.295-8.493 53.895l-0.022 0.038c-31.011 53.673-12.605 123.256 41.681 154.289l73.6 42.118zM501.333 535.911c-53.018 0-96-42.979-96-96.001 0-53.018 42.982-96 96-96s96 42.982 96 96c0 53.022-42.982 96.001-96 96.001zM341.333 439.91c0 88.367 71.634 160.001 160 160.001s160-71.634 160-160.001c0-88.363-71.633-160-160-160s-160 71.637-160 160z" />
<glyph unicode="&#xe93b;" glyph-name="setting-3" d="M349.012 454.4c-43.594 0-78.933-35.337-78.933-78.933 0-43.593 35.34-78.933 78.933-78.933s78.935 35.341 78.935 78.933c0 43.597-35.342 78.933-78.935 78.933zM206.078 375.467c0 78.942 63.993 142.933 142.933 142.933s142.935-63.991 142.935-142.933c0-78.938-63.996-142.933-142.935-142.933s-142.933 63.996-142.933 142.933zM349.015 768c17.673 0 32-14.327 32-32v-166.4c0-17.673-14.327-32-32-32s-32 14.327-32 32v166.4c0 17.673 14.327 32 32 32zM349.012 296.533c17.673 0 32.004-14.327 32.004-32v-83.2c0-17.677-14.327-32-32-32s-32 14.323-32 32v83.2c0 17.673 14.323 32 31.996 32zM653.653 620.802c-43.597 0-78.933-35.34-78.933-78.933s35.337-78.935 78.933-78.935c43.593 0 78.933 35.341 78.933 78.935s-35.341 78.933-78.933 78.933zM510.72 541.869c0 78.94 63.991 142.933 142.933 142.933 78.938 0 142.933-63.994 142.933-142.933s-63.996-142.935-142.933-142.935c-78.942 0-142.933 63.996-142.933 142.935zM653.649 768c17.677 0 32-14.327 32-32v-83.2c0-17.673-14.323-31.998-31.996-31.998s-32.004 14.325-32.004 31.998v83.2c0 17.673 14.327 32 32 32zM653.649 379.733c17.677 0 32-14.327 32-32v-166.4c0-17.673-14.323-32-32-32-17.673 0-32 14.327-32 32v166.4c0 17.673 14.327 32 32 32zM121.373 838.627c56.937 56.937 142.138 78.706 251.961 78.706h256c109.824 0 195.025-21.769 251.959-78.706 56.939-56.937 78.707-142.138 78.707-251.961v-256c0-109.824-21.769-195.025-78.707-251.959-56.934-56.939-142.135-78.707-251.959-78.707h-256c-109.823 0-195.023 21.769-251.961 78.707-56.937 56.934-78.706 142.135-78.706 251.959v256c0 109.823 21.769 195.023 78.706 251.961zM166.627 793.373c-39.063-39.063-59.961-103.195-59.961-206.706v-256c0-103.509 20.898-167.642 59.961-206.707 39.063-39.061 103.195-59.959 206.706-59.959h256c103.509 0 167.642 20.898 206.707 59.959 39.061 39.066 59.959 103.198 59.959 206.707v256c0 103.511-20.898 167.643-59.959 206.706-39.066 39.063-103.198 59.961-206.707 59.961h-256c-103.511 0-167.643-20.898-206.706-59.961z" />
<glyph unicode="&#xe93c;" glyph-name="setting-4" d="M586.667 341.333c-64.802 0-117.333-52.531-117.333-117.333s52.531-117.333 117.333-117.333c64.802 0 117.333 52.531 117.333 117.333s-52.531 117.333-117.333 117.333zM405.333 224c0 100.147 81.186 181.333 181.333 181.333s181.333-81.186 181.333-181.333c0-100.147-81.186-181.333-181.333-181.333s-181.333 81.186-181.333 181.333zM42.667 224c0 17.673 14.327 32 32 32h256c17.673 0 32-14.327 32-32s-14.327-32-32-32h-256c-17.673 0-32 14.327-32 32zM725.333 224c0 17.673 14.327 32 32 32h170.667c17.673 0 32-14.327 32-32s-14.327-32-32-32h-170.667c-17.673 0-32 14.327-32 32zM416 810.667c-64.801 0-117.333-52.532-117.333-117.333s52.532-117.333 117.333-117.333c64.802 0 117.333 52.532 117.333 117.333s-52.531 117.333-117.333 117.333zM234.667 693.333c0 100.148 81.186 181.333 181.333 181.333s181.333-81.186 181.333-181.333c0-100.148-81.186-181.333-181.333-181.333s-181.333 81.186-181.333 181.333zM42.667 693.333c0 17.673 14.327 32 32 32h170.667c17.673 0 32-14.327 32-32s-14.327-32-32-32h-170.667c-17.673 0-32 14.327-32 32zM640 693.333c0 17.673 14.327 32 32 32h256c17.673 0 32-14.327 32-32s-14.327-32-32-32h-256c-17.673 0-32 14.327-32 32z" />
<glyph unicode="&#xe93d;" glyph-name="setting-5" d="M384 416c0 17.673 14.327 32 32 32h170.667c17.673 0 32-14.327 32-32s-14.327-32-32-32h-170.667c-17.673 0-32 14.327-32 32zM682.667 501.333c0 17.673 14.327 32 32 32h170.667c17.673 0 32-14.327 32-32s-14.327-32-32-32h-170.667c-17.673 0-32 14.327-32 32zM85.333 501.333c0 17.673 14.327 32 32 32h170.667c17.673 0 32-14.327 32-32s-14.327-32-32-32h-170.667c-17.673 0-32 14.327-32 32zM202.667 917.333c17.673 0 32-14.327 32-32v-213.333c0-17.673-14.327-32-32-32s-32 14.327-32 32v213.333c0 17.673 14.327 32 32 32zM202.667 533.333c17.673 0 32-14.327 32-32v-469.333c0-17.673-14.327-32-32-32s-32 14.327-32 32v469.333c0 17.673 14.327 32 32 32zM501.333 917.333c17.673 0 32-14.327 32-32v-469.333c0-17.673-14.327-32-32-32s-32 14.327-32 32v469.333c0 17.673 14.327 32 32 32zM501.333 277.333c17.673 0 32-14.327 32-32v-213.333c0-17.673-14.327-32-32-32s-32 14.327-32 32v213.333c0 17.673 14.327 32 32 32zM800 917.333c17.673 0 32-14.327 32-32v-213.333c0-17.673-14.327-32-32-32s-32 14.327-32 32v213.333c0 17.673 14.327 32 32 32zM800 533.333c17.673 0 32-14.327 32-32v-469.333c0-17.673-14.327-32-32-32s-32 14.327-32 32v469.333c0 17.673 14.327 32 32 32z" />
<glyph unicode="&#xe93e;" glyph-name="shield-tick" d="M526.613 917.333c25.95 0 53.478-3.593 76.139-11.857l0.265-0.097 212.885-79.779c31.868-11.919 59.038-35.844 78.093-63.395 19.063-27.556 31.872-61.413 31.872-95.432v-317.013c0-31.526-10.193-65.613-25.118-95.287-14.933-29.683-36.237-58.21-61.538-77.12l-183.45-136.947c-36.595-27.486-83.46-40.299-128.828-40.299s-92.228 12.813-128.824 40.299l-0.058 0.043-183.38 136.896c-25.301 18.91-46.619 47.445-61.551 77.129-14.927 29.675-25.12 63.761-25.12 95.287v317.013c0 33.854 12.841 67.613 31.889 95.087 19.046 27.468 46.186 51.377 78.036 63.298l0.041 0.015 212.918 80.217c22.383 8.36 49.818 11.943 75.729 11.943zM473.318 845.451l-0.043-0.015-212.895-80.209c-17.199-6.431-34.63-20.7-47.897-39.834-13.271-19.14-20.484-40.42-20.484-58.62v-317.013c0-18.82 6.447-42.974 18.294-66.526 11.837-23.535 27.434-43.217 42.662-54.605zM252.956 228.629l183.554-137.024c23.556-17.711 56.239-27.499 90.423-27.499s66.867 9.788 90.423 27.499l0.085 0.064 183.454 136.951c15.232 11.383 30.835 31.070 42.675 54.613 11.849 23.552 18.295 47.706 18.295 66.526v317.013c0 18.461-7.245 39.857-20.501 59.021-13.261 19.168-30.686 33.43-47.881 39.859l-212.783 79.741c-13.606 4.937-33.169 7.939-54.089 7.939-20.996 0-40.265-3.024-53.295-7.882zM675.426 601.508c12.497-12.497 12.497-32.758 0-45.255l-183.467-183.465c-12.497-12.497-32.755-12.497-45.252 0l-68.695 68.693c-12.497 12.497-12.497 32.755 0 45.252s32.758 12.497 45.255 0l46.066-46.063 160.841 160.838c12.497 12.497 32.755 12.497 45.252 0z" />
<glyph unicode="&#xe93f;" glyph-name="shopping-bag" d="M320.828 244.053c0 17.673 14.327 32 32 32h529.493c17.673 0 32-14.327 32-32s-14.327-32-32-32h-529.493c-17.673 0-32 14.327-32 32zM404.789 833.373c-11.858-11.858-19.961-29.978-19.961-54.706v-149.333c0-17.673-14.327-32-32-32s-32 14.327-32 32v149.333c0 39.272 13.23 74.485 38.706 99.961s60.689 38.706 99.96 38.706h128c39.27 0 74.487-13.231 99.959-38.706 25.476-25.475 38.707-60.689 38.707-99.961v-149.333c0-17.673-14.327-32-32-32s-32 14.327-32 32v149.333c0 24.728-8.102 42.848-19.959 54.706s-29.978 19.961-54.707 19.961h-128c-24.73 0-42.848-8.103-54.705-19.961zM259.043 628.487c-15.855-18.878-21.478-46.779-26.308-89.373l-0.024-0.207-38.408-320.061c-6.034-49.481-0.292-87.172 17.815-111.979 17-23.292 50.725-42.867 119.806-42.867h383.574c68.826 0 102.468 19.55 119.488 42.867 18.138 24.849 23.953 62.588 18.121 112.081l-38.4 320.004c-5.056 42.642-10.743 70.577-26.675 89.506-14.217 16.889-42.667 32.875-110.933 32.875h-307.201c-68.284 0-96.7-15.992-110.855-32.847zM210.033 669.647c31.712 37.759 83.081 55.687 159.864 55.687h307.201c76.796 0 128.137-17.935 159.893-55.659 30.029-35.674 36.51-83.027 41.267-123.151l38.404-320.058c6.537-55.454 2.325-113.067-29.986-157.333-33.434-45.803-90.671-69.133-171.179-69.133h-383.574c-80.678 0-138.047 23.305-171.5 69.133-32.34 44.305-36.416 101.961-29.655 157.427l38.384 319.869c4.556 40.158 10.894 87.513 40.88 123.217z" />
<glyph unicode="&#xe940;" glyph-name="shopping-cart" d="M341.333 629.333c0 17.673 14.327 32 32 32h512c17.673 0 32-14.327 32-32s-14.327-32-32-32h-512c-17.673 0-32 14.327-32 32zM341.333 106.667c-11.782 0-21.333-9.553-21.333-21.333s9.551-21.333 21.333-21.333c11.782 0 21.333 9.553 21.333 21.333s-9.551 21.333-21.333 21.333zM256 85.333c0 47.13 38.205 85.333 85.333 85.333s85.333-38.204 85.333-85.333c0-47.13-38.205-85.333-85.333-85.333s-85.333 38.204-85.333 85.333zM682.667 106.667c-11.78 0-21.333-9.553-21.333-21.333s9.553-21.333 21.333-21.333c11.78 0 21.333 9.553 21.333 21.333s-9.553 21.333-21.333 21.333zM597.333 85.333c0 47.13 38.204 85.333 85.333 85.333s85.333-38.204 85.333-85.333c0-47.13-38.204-85.333-85.333-85.333s-85.333 38.204-85.333 85.333zM42.667 885.333c0 17.673 14.327 32 32 32h74.24c50.755 0 92.989-34.138 106.365-79.787h533.208c89.728 0 158.276-73.268 151.808-162.734l-23.036-319.992-0.013-0.154c-5.965-77.525-73.476-140.907-151.799-140.907h-454.4c-88.603 0-158.487 75.652-150.926 163.977l35.41 424.921c2.274 27.034-19.313 50.676-46.617 50.676h-74.24c-17.673 0-32 14.327-32 32zM257.32 773.547l-33.437-401.246c-4.359-50.752 35.828-94.541 87.157-94.541h454.4c44.535 0 84.523 37.274 87.983 81.741l0.004 0.073 23.027 319.844c3.776 52.188-35.196 94.129-87.974 94.129h-531.16z" />
<glyph unicode="&#xe941;" glyph-name="sort" horiz-adv-x="1067" d="M405.333 245.333c0 17.673 14.327 32 32 32h170.667c17.673 0 32-14.327 32-32s-14.327-32-32-32h-170.667c-17.673 0-32 14.327-32 32zM234.667 458.667c0 17.673 14.327 32 32 32h512c17.673 0 32-14.327 32-32s-14.327-32-32-32h-512c-17.673 0-32 14.327-32 32zM106.667 672c0 17.673 14.327 32 32 32h768c17.673 0 32-14.327 32-32s-14.327-32-32-32h-768c-17.673 0-32 14.327-32 32z" />
<glyph unicode="&#xe942;" glyph-name="star" d="M42.667 461.333c0 17.673 14.327 32 32 32h42.667c17.673 0 32-14.327 32-32s-14.327-32-32-32h-42.667c-17.673 0-32 14.327-32 32zM42.667 162.667c0 17.673 14.327 32 32 32h128c17.673 0 32-14.327 32-32s-14.327-32-32-32h-128c-17.673 0-32 14.327-32 32zM42.667 760c0 17.673 14.327 32 32 32h256c17.673 0 32-14.327 32-32s-14.327-32-32-32h-256c-17.673 0-32 14.327-32 32zM586.769 768c-3.354 0-16.081-3.003-29.828-31.045l-0.111-0.226-60.096-120.193c-6.903-14.082-18.304-25.94-29.854-34.531-11.588-8.62-26.295-16.161-41.869-18.703-0.012-0.002 0.012 0.002 0 0l-108.66-17.897c-29.201-5.039-36.293-16.116-37.559-20.072-1.248-3.895-1.961-16.964 19.032-37.961l85.244-85.244c11.578-11.93 19.325-27.58 23.59-42.513 4.243-14.848 6.017-32.414 2.090-48.96l-24.298-104.866c-8.947-38.571 0.919-49.041 2.158-49.941 1.35-0.981 14.504-7.049 48.494 13.018-0.013-0.009 0.009 0.009 0 0l101.845 60.51c15.39 9.267 33.737 12.864 50.142 12.864s34.752-3.597 50.142-12.864l101.931-60.561c33.98-20.267 47.070-14.106 48.358-13.163 1.301 0.951 11.153 11.575 2.21 50.129l-24.307 104.9c0 0.009 0.004-0.009 0 0-3.887 16.631-2.18 34.283 2.095 49.254 4.271 14.95 12.083 30.686 23.932 42.53l84.809 84.813c0.017 0.013 0.030 0.030 0.043 0.043 21.026 21.222 20.343 34.411 19.085 38.332-1.233 3.861-8.218 14.885-37.444 19.732l-109.453 18.034c-15.049 2.8-29.487 10.107-41.092 18.67-11.499 8.484-22.989 20.248-29.952 34.446l-60.058 120.119c-0.009 0.012 0.004-0.012 0 0-14.17 28.129-27.119 31.345-30.618 31.345zM586.769 832c39.168 0 69.103-29.457 87.787-66.575l0.034-0.075 60.309-120.615c1.152-2.366 4.544-6.756 10.496-11.145 5.747-4.243 11.243-6.53 14.566-7.205l108.382-17.851c40.294-6.675 76.22-26.584 87.996-63.363 11.755-36.714-5.781-73.859-34.633-102.958l-0.098-0.094-84.907-84.907c-2.236-2.236-5.517-7.403-7.646-14.857-2.121-7.424-2.116-13.679-1.314-17.092l0.017-0.068 24.316-104.951c0 0 0-0.004 0 0 10.253-44.215 7.518-91.2-26.803-116.271-34.321-25.075-79.876-13.385-118.848 9.847 0 0 0 0 0 0-0.017 0.009-0.034 0.021-0.047 0.030l-102.14 60.685c-2.931 1.771-9.062 3.703-17.148 3.703s-14.217-1.933-17.148-3.703l-0.213-0.128-102.046-60.629c-38.946-23.002-84.45-34.62-118.726-9.681-34.386 25.015-37.105 71.94-26.854 116.139 0-0.004 0 0.004 0 0l24.372 105.178c0.728 3.046 0.794 9.109-1.353 16.623-2.101 7.351-5.376 12.766-7.864 15.394l-84.688 84.689c-28.927 28.928-46.494 65.988-34.729 102.732 11.746 36.682 47.518 56.73 87.778 63.646l0.217 0.037 108.859 17.929c2.761 0.449 8.092 2.504 13.987 6.891 5.901 4.389 9.391 8.896 10.603 11.38l0.141 0.297 60.109 120.212c18.261 37.182 47.966 66.756 87.236 66.756z" />
<glyph unicode="&#xe943;" glyph-name="star-1" d="M455.706 809.843c18.163 36.125 36.523 43.491 45.594 43.491 9.015 0 27.26-7.274 45.214-43.371l75.072-150.143c8-16.258 21.363-30.156 35.17-40.342 13.862-10.228 31.083-18.857 48.845-21.818l136.107-22.613c0.009-0.001-0.004 0.001 0 0 37.99-6.335 50.458-21.307 53.342-30.278 2.859-8.901 1.51-28.224-25.847-55.398l-105.89-105.89c-13.756-13.756-22.955-32.149-28.028-49.873-5.077-17.741-6.98-38.14-2.756-56.977l30.336-131.174c11.324-49.143-0.085-66.829-5.747-70.959-5.717-4.164-26.193-9.583-69.675 16.098 0.009-0.009-0.009 0.004 0 0l-127.548 75.503c0.004-0.004-0.004 0.004 0 0-17.66 10.462-38.921 14.703-58.381 14.703-19.494 0-40.747-4.254-58.492-14.579l-127.813-75.661c-43.131-25.596-63.626-20.156-69.447-15.91-5.795 4.228-17.207 22.025-5.925 70.78l30.341 131.2c4.223 18.837 2.324 39.236-2.754 56.977-5.074 17.724-14.275 36.117-28.030 49.873l-105.813 105.813c-27.179 27.179-28.611 46.557-25.744 55.533 2.857 8.945 15.221 23.893 53.178 30.223 0.005 0.001-0.006-0.001 0 0l136.203 22.629c17.583 2.986 34.671 11.647 48.422 21.843 13.711 10.167 27.062 24.051 35.055 40.3l75.011 150.021c0.004 0.008-0.004-0.008 0 0zM603.806 838.492c-22.583 45.382-57.877 78.841-102.507 78.841-44.578 0-79.985-33.402-102.778-78.749l-75.24-150.481c-2.254-4.602-7.642-11.151-15.761-17.171-8.092-5.999-15.941-9.283-20.973-10.149-0.015-0.003-0.030-0.006-0.045-0.008l-135.994-22.594c-49.071-8.179-90.282-32.059-103.639-73.886-13.347-41.798 6.341-85.139 41.456-120.254l105.813-105.813c4.164-4.164 8.83-12.011 11.756-22.234 2.908-10.159 3.154-19.375 1.851-25.284-0.006-0.030-0.012-0.055-0.019-0.085l-30.244-130.769c0 0 0 0 0 0-12.61-54.498-8.236-108.599 30.554-136.905 38.767-28.288 91.657-16.021 139.833 12.57l127.334 75.379c0.030 0.017 0.055 0.034 0.081 0.047 5.726 3.307 15.159 5.854 26.227 5.854 11.149 0 20.39-2.581 25.766-5.769l127.586-75.529c48.235-28.493 101.188-40.981 139.951-12.719 38.818 28.297 42.982 82.505 30.413 137.041l-30.251 130.799c-0.004 0.030-0.013 0.055-0.017 0.085-1.306 5.909-1.058 15.125 1.847 25.284 2.927 10.223 7.595 18.069 11.759 22.234l105.737 105.737c0.013 0.013 0.030 0.026 0.043 0.043 35.337 35.115 55.083 78.49 41.63 120.346-13.436 41.801-54.724 65.652-103.761 73.826l-136.107 22.613c-0.009 0.001 0.004-0.001 0 0zM603.806 838.492c-0.009 0.009 0.004-0.009 0 0v0z" />
<glyph unicode="&#xe944;" glyph-name="star-slash" d="M950.643 907.961c12.497-12.497 12.497-32.758 0-45.255l-853.333-853.332c-12.497-12.497-32.758-12.497-45.255 0s-12.497 32.755 0 45.252l853.332 853.335c12.497 12.497 32.759 12.497 45.257 0zM815.386 608.568c2.906 17.433 19.392 29.209 36.826 26.304 49.037-8.173 90.325-32.025 103.765-73.826 13.453-41.857-6.298-85.236-41.638-120.351-0.013-0.013-0.026-0.026-0.038-0.038l-105.737-105.737c-4.164-4.164-8.828-12.011-11.755-22.234-2.91-10.159-3.157-19.371-1.852-25.284l30.263-130.859c12.57-54.541 8.414-108.77-30.404-137.067-38.767-28.258-91.695-15.787-139.93 12.706l-127.599 75.533c-5.376 3.187-14.63 5.777-25.779 5.777-11.063 0-20.497-2.547-26.223-5.85l-127.448-75.447c-15.208-9.003-34.835-3.972-43.838 11.238-9.003 15.206-3.973 34.833 11.236 43.836l127.781 75.644c17.749 10.325 38.997 14.579 58.492 14.579 19.465 0 40.734-4.245 58.394-14.711l127.535-75.494c43.503-25.698 63.957-20.262 69.675-16.094 5.662 4.126 17.075 21.815 5.747 70.955l-30.336 131.174c-4.22 18.837-2.321 39.241 2.756 56.977 5.073 17.724 14.276 36.122 28.032 49.873l105.89 105.894c27.358 27.17 28.706 46.494 25.843 55.395-2.884 8.973-15.356 23.948-53.355 30.281-17.434 2.906-29.21 19.393-26.304 36.826zM500.979 850.026c-9.015 0-27.26-7.274-45.214-43.371l-75.071-150.141c-7.993-16.249-21.344-30.134-35.055-40.3-13.751-10.196-30.839-18.858-48.422-21.844l-0.113-0.019-136.090-22.61c-0.006-0.001 0.005 0.001 0 0-37.956-6.33-50.321-21.278-53.178-30.223-2.866-8.975-1.434-28.354 25.744-55.532l105.813-105.813c13.755-13.756 22.956-32.149 28.030-49.873 5.078-17.741 6.977-38.14 2.754-56.977l-0.044-0.201-24.32-105.387c-3.974-17.22-21.155-27.955-38.376-23.983s-27.959 21.154-23.985 38.374l24.275 105.19c0.006 0.026 0.012 0.051 0.017 0.081 1.305 5.909 1.059 15.125-1.85 25.289-2.926 10.223-7.592 18.065-11.756 22.234l-105.813 105.813c-35.115 35.115-54.803 78.455-41.456 120.253 13.356 41.827 54.551 65.705 103.623 73.884l136.010 22.597c0.015 0.003 0.030 0.005 0.045 0.008 5.032 0.866 12.881 4.149 20.973 10.149 8.119 6.020 13.507 12.569 15.761 17.171l0.115 0.236 75.065 150.126c-0.005-0.009 0.004 0.009 0 0 22.58 45.382 57.888 78.869 102.518 78.869 44.582 0 79.987-33.402 102.78-78.749l75.375-150.749c1.702-3.561 6.426-9.386 14.972-16.445 13.628-11.256 15.548-31.426 4.292-45.051s-31.428-15.546-45.052-4.291c-11.017 9.1-24.115 21.951-31.817 37.883l-74.957 149.91c-0.004 0.008 0.004-0.008 0 0-18.163 36.125-36.523 43.491-45.594 43.491z" />
<glyph unicode="&#xe945;" glyph-name="stop" d="M157.106 802.894c52.137 52.137 129.871 71.773 229.027 71.773h230.4c99.157 0 176.892-19.635 229.026-71.773 52.139-52.137 71.774-129.871 71.774-229.027v-230.4c0-99.157-19.635-176.892-71.774-229.026-52.134-52.139-129.869-71.774-229.026-71.774h-230.4c-99.156 0-176.89 19.635-229.027 71.774-52.137 52.134-71.773 129.869-71.773 229.026v230.4c0 99.156 19.635 176.89 71.773 229.027zM202.361 757.639c-34.263-34.263-53.027-90.929-53.027-183.773v-230.4c0-92.843 18.765-149.508 53.027-183.774 34.263-34.261 90.929-53.026 183.773-53.026h230.4c92.843 0 149.508 18.765 183.774 53.026 34.261 34.266 53.026 90.931 53.026 183.774v230.4c0 92.844-18.765 149.51-53.026 183.773-34.266 34.263-90.931 53.027-183.774 53.027h-230.4c-92.844 0-149.51-18.765-183.773-53.027z" />
<glyph unicode="&#xe946;" glyph-name="sun" d="M512 917.333c23.565 0 42.667-19.103 42.667-42.667v-3.413c0-23.564-19.102-42.667-42.667-42.667s-42.667 19.103-42.667 42.667v3.413c0 23.564 19.102 42.667 42.667 42.667zM177.19 782.81c16.663 16.662 43.677 16.662 60.34 0l5.547-5.547c16.662-16.663 16.662-43.677 0-60.34s-43.677-16.662-60.34 0l-5.547 5.547c-16.662 16.663-16.662 43.677 0 60.34zM846.81 782.81c16.661-16.663 16.661-43.677 0-60.34l-5.547-5.547c-16.661-16.662-43.678-16.662-60.339 0s-16.661 43.677 0 60.34l5.547 5.547c16.661 16.662 43.678 16.662 60.339 0zM42.667 448c0 23.565 19.103 42.667 42.667 42.667h3.413c23.564 0 42.667-19.102 42.667-42.667s-19.103-42.667-42.667-42.667h-3.413c-23.564 0-42.667 19.102-42.667 42.667zM892.587 448c0 23.565 19.102 42.667 42.667 42.667h3.413c23.565 0 42.667-19.102 42.667-42.667s-19.102-42.667-42.667-42.667h-3.413c-23.565 0-42.667 19.102-42.667 42.667zM243.077 179.076c16.662-16.661 16.662-43.678 0-60.339l-5.547-5.547c-16.663-16.661-43.677-16.661-60.34 0s-16.662 43.678 0 60.339l5.547 5.547c16.663 16.661 43.677 16.661 60.34 0zM780.924 179.076c16.661 16.661 43.678 16.661 60.339 0l5.547-5.547c16.661-16.661 16.661-43.678 0-60.339s-43.678-16.661-60.339 0l-5.547 5.547c-16.661 16.661-16.661 43.678 0 60.339zM512 67.413c23.565 0 42.667-19.102 42.667-42.667v-3.413c0-23.565-19.102-42.667-42.667-42.667s-42.667 19.102-42.667 42.667v3.413c0 23.565 19.102 42.667 42.667 42.667zM512 693.333c-135.494 0-245.333-109.839-245.333-245.333 0-135.492 109.839-245.333 245.333-245.333 135.492 0 245.333 109.841 245.333 245.333 0 135.494-109.841 245.333-245.333 245.333zM202.667 448c0 170.84 138.493 309.333 309.333 309.333 170.842 0 309.333-138.493 309.333-309.333 0-170.842-138.492-309.333-309.333-309.333-170.84 0-309.333 138.492-309.333 309.333z" />
<glyph unicode="&#xe947;" glyph-name="textalign-center" d="M267.094 117.333c0 17.673 14.327 32 32 32h404.48c17.673 0 32-14.327 32-32s-14.327-32-32-32h-404.48c-17.673 0-32 14.327-32 32zM85.333 330.667c0 17.673 14.327 32 32 32h768c17.673 0 32-14.327 32-32s-14.327-32-32-32h-768c-17.673 0-32 14.327-32 32zM267.094 544c0 17.673 14.327 32 32 32h404.48c17.673 0 32-14.327 32-32s-14.327-32-32-32h-404.48c-17.673 0-32 14.327-32 32zM85.333 757.333c0 17.673 14.327 32 32 32h768c17.673 0 32-14.327 32-32s-14.327-32-32-32h-768c-17.673 0-32 14.327-32 32z" />
<glyph unicode="&#xe948;" glyph-name="timer" horiz-adv-x="1067" d="M352 885.333c0 17.673 14.327 32 32 32h256c17.673 0 32-14.327 32-32s-14.327-32-32-32h-256c-17.673 0-32 14.327-32 32zM512 661.333c17.673 0 32-14.327 32-32v-213.333c0-17.673-14.327-32-32-32s-32 14.327-32 32v213.333c0 17.673 14.327 32 32 32zM512 746.667c-188.407 0-341.333-152.926-341.333-341.333s152.926-341.333 341.333-341.333c188.407 0 341.333 152.926 341.333 341.333s-152.926 341.333-341.333 341.333zM106.667 405.333c0 223.753 181.58 405.333 405.333 405.333s405.333-181.58 405.333-405.333c0-223.753-181.581-405.333-405.333-405.333s-405.333 181.581-405.333 405.333z" />
<glyph unicode="&#xe949;" glyph-name="user" d="M128 32c0 188.625 185.050 330.667 398.507 330.667s398.507-142.042 398.507-330.667c0-17.673-14.327-32-32-32s-32 14.327-32 32c0 141.615-143.484 266.667-334.507 266.667s-334.507-125.052-334.507-266.667c0-17.673-14.327-32-32-32s-32 14.327-32 32zM526.507 853.333c-100.149 0-181.335-81.186-181.335-181.333s81.186-181.333 181.335-181.333c100.147 0 181.333 81.186 181.333 181.333s-81.186 181.333-181.333 181.333zM281.172 672c0 135.494 109.839 245.333 245.335 245.333 135.492 0 245.333-109.839 245.333-245.333s-109.841-245.333-245.333-245.333c-135.495 0-245.335 109.839-245.335 245.333z" />
<glyph unicode="&#xe94a;" glyph-name="Vector-Stroke" d="M415.559 584.654c45.352 45.35 119.37 45.35 164.72 0l278.187-278.188c12.497-12.497 12.497-32.755 0-45.252s-32.755-12.497-45.252 0l-278.187 278.185c-20.356 20.357-53.858 20.357-74.214 0l-278.185-278.185c-12.497-12.497-32.758-12.497-45.255 0s-12.497 32.755 0 45.252l278.187 278.188z" />
<glyph unicode="&#xe94b;" glyph-name="Vector" d="M384 458.667c0 64.606 52.727 117.333 117.333 117.333s117.333-52.727 117.333-117.333c0-64.606-52.727-117.333-117.333-117.333s-117.333 52.727-117.333 117.333zM501.333 512c-29.261 0-53.333-24.073-53.333-53.333s24.073-53.333 53.333-53.333c29.261 0 53.333 24.073 53.333 53.333s-24.073 53.333-53.333 53.333zM682.667 458.667c0 64.606 52.727 117.333 117.333 117.333s117.333-52.727 117.333-117.333c0-64.606-52.727-117.333-117.333-117.333s-117.333 52.727-117.333 117.333zM800 512c-29.261 0-53.333-24.073-53.333-53.333s24.073-53.333 53.333-53.333c29.261 0 53.333 24.073 53.333 53.333s-24.073 53.333-53.333 53.333zM85.333 458.667c0 64.606 52.727 117.333 117.333 117.333s117.333-52.727 117.333-117.333c0-64.606-52.727-117.333-117.333-117.333s-117.333 52.727-117.333 117.333zM202.667 512c-29.26 0-53.333-24.073-53.333-53.333s24.073-53.333 53.333-53.333c29.26 0 53.333 24.073 53.333 53.333s-24.073 53.333-53.333 53.333z" />
<glyph unicode="&#xe94c;" glyph-name="Vector-1" d="M352 409.314c-17.74 0-32-14.263-32-32v-170.667c0-17.741 14.26-32 32-32s32 14.259 32 32v170.667c0 17.737-14.26 32-32 32zM256 377.314c0 53.086 42.914 96 96 96s96-42.914 96-96v-170.667c0-53.090-42.914-96-96-96s-96 42.91-96 96v170.667zM741.534 837.269c48.538 48.537 134.050 55.548 199.799-13.332l0.303-0.319c6.635-7.142 10.931-15.823 13.542-22.864 2.65-7.156 4.821-16.028 4.821-24.939v-99.841c0-9.878-2.53-19.644-5.875-27.668-3.251-7.806-8.627-17.21-16.9-24.488-36.395-32.336-76.753-46.307-115.034-43.433-37.999 2.851-71.040 22.153-92.561 50.749-16.047 21.235-25.63 48.442-25.63 76.84v38.401c0 28.498 9.643 55.57 25.438 77.009l0.503 0.663c3.682 4.734 7.539 9.168 11.593 13.221zM894.246 780.572c-41.536 42.819-85.312 33.591-107.46 11.443-1.843-1.846-3.87-4.128-6.063-6.92-7.953-10.937-12.723-24.689-12.723-38.719v-38.401c0-14.238 4.902-27.961 12.719-38.289l0.051-0.070c10.91-14.496 27.358-23.995 46.212-25.41 18.394-1.38 41.984 4.78 67.209 26.993 0.222 0.364 0.533 0.947 0.858 1.724 0.38 0.914 0.657 1.81 0.823 2.541 0.085 0.379 0.115 0.616 0.128 0.708v99.308c-0.013 0.098-0.043 0.265-0.090 0.501-0.141 0.683-0.388 1.572-0.742 2.522-0.333 0.907-0.674 1.617-0.922 2.068zM550.4 727.18c0 59.914 48.887 108.8 108.8 108.8h96c12.147 0 23.245-6.876 28.655-17.751 5.406-10.875 4.194-23.875-3.136-33.559-7.817-10.328-12.719-24.055-12.719-38.293v-38.401c0-14.238 4.902-27.961 12.719-38.289 7.326-9.685 8.542-22.68 3.136-33.555-5.41-10.875-16.508-17.751-28.655-17.751h-96c-29.858 0-57.19 11.932-76.817 31.983-20.117 19.696-31.983 47.474-31.983 76.816zM659.2 771.979c-24.567 0-44.8-20.233-44.8-44.8 0-12.3 5.065-23.624 12.89-31.215 0.239-0.229 0.469-0.46 0.695-0.696 7.659-7.896 18.586-12.888 31.215-12.888h47.403c-1.702 8.33-2.603 16.905-2.603 25.595v38.401c0 8.69 0.9 17.273 2.603 25.603h-47.403zM108.422 780.572c-0.249-0.451-0.588-1.161-0.925-2.068-0.352-0.95-0.599-1.839-0.74-2.522-0.049-0.237-0.076-0.404-0.090-0.501v-99.308c0.012-0.092 0.044-0.329 0.13-0.708 0.164-0.73 0.441-1.626 0.822-2.541 0.324-0.777 0.637-1.361 0.858-1.724 25.226-22.214 48.816-28.373 67.209-26.993 18.854 1.415 35.303 10.914 46.211 25.41l0.052 0.070c7.816 10.328 12.718 24.051 12.718 38.289v38.401c0 14.030-4.77 27.782-12.724 38.719-2.19 2.791-4.217 5.073-6.063 6.92-22.148 22.148-65.921 31.376-107.458-11.443zM61.333 823.938c65.748 68.879 151.264 61.869 199.801 13.332 4.053-4.053 7.91-8.487 11.591-13.221l0.503-0.663c15.796-21.438 25.439-48.511 25.439-77.009v-38.401c0-28.413-9.595-55.634-25.657-76.875-21.519-28.578-54.552-47.864-92.535-50.714-38.288-2.874-78.655 11.103-115.052 43.451-8.265 7.276-13.631 16.671-16.881 24.47-3.343 8.023-5.875 17.789-5.875 27.668v99.841c0 8.911 2.17 17.783 4.823 24.939 2.611 7.041 6.909 15.72 13.541 22.862l0.302 0.321zM218.816 818.228c5.408 10.875 16.507 17.751 28.652 17.751h96c59.913 0 108.802-48.886 108.802-108.8 0-29.341-11.866-57.12-31.984-76.816-19.626-20.052-46.957-31.983-76.818-31.983h-96c-12.145 0-23.244 6.876-28.652 17.751s-4.196 23.87 3.133 33.555c7.816 10.328 12.718 24.051 12.718 38.289v38.401c0 14.238-4.899 27.965-12.715 38.293-7.329 9.685-8.544 22.684-3.136 33.559zM296.066 771.979c1.706-8.33 2.601-16.913 2.601-25.603v-38.401c0-8.69-0.895-17.265-2.601-25.595h47.403c12.632 0 23.558 4.992 31.215 12.888 0.228 0.236 0.46 0.468 0.696 0.696 7.828 7.591 12.89 18.915 12.89 31.215 0 24.566-20.233 44.8-44.801 44.8h-47.403zM650.667 677.26c17.673 0 32-14.327 32-32v-630.613c0-17.677-14.327-32-32-32s-32 14.323-32 32v630.613c0 17.673 14.327 32 32 32zM352 174.647c17.673 0 32-14.327 32-32v-128c0-17.677-14.327-32-32-32s-32 14.323-32 32v128c0 17.673 14.327 32 32 32zM352 677.26c17.673 0 32-14.327 32-32v-203.946c0-17.677-14.327-32-32-32s-32 14.323-32 32v203.946c0 17.673 14.327 32 32 32z" />
<glyph unicode="&#xe94d;" glyph-name="bluetooth" d="M537.95 911.446c-31.202-14.539-41.31-49.152-41.31-81.219v-275.258l-229.684 210.528c-13.028 11.942-33.271 11.061-45.212-1.967s-11.061-33.27 1.967-45.212l272.929-250.166v-19.102l-272.929-250.167c-13.028-11.942-13.909-32.183-1.967-45.214 11.942-13.026 32.184-13.905 45.212-1.967l229.684 210.53v-275.26c0-32.064 10.108-66.679 41.31-81.216 31.121-14.498 64.145-0.119 88.781 20.326l164.322 137.007c38.101 31.757 38.673 86.396 2.897 119.364l-192.175 176.145 192.175 176.15c35.776 32.969 35.2 87.61-2.906 119.369l-164.313 136.999c-24.636 20.447-57.66 34.828-88.781 20.329zM560.64 409.489l189.939-174.101c7.718-7.134 7.458-16.503-0.503-23.138l-164.22-136.922c-8.273-6.857-14.545-9.822-18.308-10.876-1.135-0.316-1.937-0.439-2.453-0.482-0.29 0.414-0.683 1.075-1.143 2.095-1.579 3.507-3.311 10.146-3.311 20.907v322.517zM560.64 507.712v322.514c0 10.762 1.732 17.4 3.311 20.91 0.461 1.018 0.853 1.681 1.143 2.092 0.516-0.041 1.318-0.164 2.453-0.482 3.767-1.053 10.010-3.993 18.283-10.857l164.237-136.935c7.962-6.635 8.256-15.988 0.538-23.121l-189.965-174.123z" />
<glyph unicode="&#xe94e;" glyph-name="book" d="M320 522.667c0 17.673 14.327 32 32 32h213.333c17.673 0 32-14.327 32-32s-14.327-32-32-32h-213.333c-17.673 0-32 14.327-32 32zM320 672c0 17.673 14.327 32 32 32h341.333c17.673 0 32-14.327 32-32s-14.327-32-32-32h-341.333c-17.673 0-32 14.327-32 32zM281.6 298.667c-49.314 0-89.6-40.286-89.6-89.6v-27.733c0-64.674 52.66-117.333 117.333-117.333h426.667c64.674 0 117.333 52.659 117.333 117.333v117.333h-571.733zM128 209.067c0 84.659 68.94 153.6 153.6 153.6h603.733c17.673 0 32-14.327 32-32v-149.333c0-100.019-81.314-181.333-181.333-181.333h-426.667c-100.020 0-181.333 81.314-181.333 181.333v27.733zM225.294 820.039c-21.824-21.824-33.294-62.477-33.294-148.039v-469.333c0-17.673-14.327-32-32-32s-32 14.327-32 32v469.333c0 85.105 9.863 151.118 52.039 193.294s108.189 52.039 193.294 52.039h298.667c85.103 0 151.117-9.863 193.293-52.039s52.041-108.189 52.041-193.294v-427.093c0-5.705 0-12.651-0.508-19.772-1.259-17.63-16.572-30.899-34.197-29.641-17.63 1.259-30.899 16.572-29.641 34.197 0.333 4.646 0.346 9.481 0.346 15.642v426.667c0 85.562-11.469 126.216-33.293 148.039s-62.477 33.294-148.041 33.294h-298.667c-85.562 0-126.216-11.471-148.039-33.294z" />
</font>
</defs>
</svg>
